<?xml version="1.0" standalone="no"?>
<!DOCTYPE svg PUBLIC "-//W3C//DTD SVG 1.1//EN" "http://www.w3.org/Graphics/SVG/1.1/DTD/svg11.dtd" >
<svg xmlns="http://www.w3.org/2000/svg" xmlns:xlink="http://www.w3.org/1999/xlink" version="1.1">
<metadata>
Created by FontForge 20200511 at Sun Feb  6 09:04:57 2005
 By convertio
Copyright (c) Alexandra Gophmann (rusification), 2005. All rights reserved.
</metadata>
<defs>
<font id="EkaterinaVelikayaOne" horiz-adv-x="2100" >
  <font-face 
    font-family="Ekaterina Velikaya One"
    font-weight="400"
    font-stretch="normal"
    units-per-em="1000"
    panose-1="3 0 5 7 6 0 0 2 0 4"
    ascent="800"
    descent="-200"
    x-height="446"
    cap-height="1627"
    bbox="-2609 -1759 5805 2085"
    underline-thickness="50"
    underline-position="-125"
    unicode-range="U+0005-2219"
  />
<missing-glyph horiz-adv-x="381" 
 />
    <glyph glyph-name=".notdef" horiz-adv-x="381" 
 />
    <glyph glyph-name=".null" horiz-adv-x="0" 
 />
    <glyph glyph-name="nonmarkingreturn" horiz-adv-x="381" 
 />
    <glyph glyph-name="space" unicode=" " horiz-adv-x="381" 
 />
    <glyph glyph-name="space" unicode="&#xa0;" horiz-adv-x="381" 
 />
    <glyph glyph-name="breve" horiz-adv-x="252" 
d="M957 901h-13q-11 -26 -34 -46.5t-65 -20.5q-13 0 -26.5 5.5t-25.5 14.5t-21.5 21t-14.5 26h-13q0 -25 8.5 -44t22 -31.5t31.5 -19t37 -6.5q37 0 70 23.5t44 77.5z" />
    <glyph glyph-name="dotaccent" horiz-adv-x="250" 
d="M371 617q0 5 -1.5 10t-6.5 9q-4 3 -8.5 4t-9.5 1q-11 0 -18 -5q-8 -8 -8 -19t8 -17q9 -6 18 -6q10 0 18 6q8 5 8 17z" />
    <glyph glyph-name="ring" horiz-adv-x="943" 
d="M614 841q0 17 -6 30.5t-15 18.5q-13 8 -35 8q-27 0 -56 -16q-12 -7 -25.5 -18.5t-25.5 -26t-21.5 -30t-14.5 -30.5q-4 -13 -4 -35q0 -15 3.5 -30t11.5 -26q17 -18 43 -18q14 0 27.5 4t23.5 10q14 8 28.5 23t27 34t22 40t13.5 41q3 10 3 21zM607 841q0 -14 -4 -24.5
t-6 -17.5q-6 -14 -14.5 -30.5t-19 -31.5t-22.5 -28t-24 -19q-11 -6 -25 -10.5t-27 -4.5q-14 0 -21 7q-12 15 -12 31q0 7 1.5 13.5t3.5 13.5q4 16 15 36t25 38.5t28.5 33.5t25.5 23q7 5 18 9.5t23 4.5q19 0 28 -17q7 -13 7 -27z" />
    <glyph glyph-name="hungarumlaut" unicode="&#xa;" horiz-adv-x="271" 
d="M259 1005q0 23 -18 23q-12 0 -24 -8q-17 -14 -29.5 -35t-17.5 -45q0 -30 18 -30q-8 -30 -34 -64t-53 -66q11 7 34.5 28.5t49 51t46.5 63.5t26 67q1 5 1.5 8.5t0.5 6.5zM139 1004q0 23 -18 23q-10 0 -24 -11q-17 -14 -29.5 -33.5t-17.5 -46.5q0 -26 18 -26
q-3 -16 -11.5 -32.5t-20.5 -32.5t-25.5 -32.5t-25.5 -32.5q9 7 32 28.5t48 51t46 63.5t26 67q2 10 2 14z" />
    <glyph glyph-name="caron" horiz-adv-x="531" 
d="M954 888h-10l-94 -80l-93 80h-11l88 -110h38z" />
    <glyph glyph-name="dotlessi" unicode="&#xd;" horiz-adv-x="250" 
d="M323 149l-3 3q-17 -18 -39 -36t-47 -35t-51 -33.5t-49 -29.5q-8 -5 -23.5 -9t-28.5 -4q-10 0 -13 2q-16 11 -16 31q0 13 5 23q26 51 54.5 102t57 100.5t56 96t50.5 87.5h-55q-15 -29 -29.5 -52.5t-33 -53t-43.5 -71.5t-61 -107q-30 -56 -30 -101q0 -15 3.5 -27.5
t8.5 -20.5q4 -9 14 -12.5t24 -3.5q16 0 33 4t31 12q47 25 97 59t88 76z" />
    <glyph glyph-name="fraction" horiz-adv-x="490" 
d="M385 472l-11 11q-60 -26 -115 -74.5t-108 -102t-105 -103t-105 -76.5l11 -15q61 34 115 86t105.5 105t103.5 99.5t109 69.5z" />
    <glyph glyph-name="fi" horiz-adv-x="572" 
d="M796 886q0 32 -12.5 59t-33 46.5t-48 30.5t-57.5 11q-49 0 -100 -23t-93 -61.5t-68.5 -88t-26.5 -102.5q0 -25 6.5 -46.5t17 -39.5t23.5 -32.5t25 -25.5q10 -10 10 -19q0 -10 -18 -21q-37 -14 -78.5 -32.5t-82 -42t-77.5 -53.5t-65 -68t-44.5 -84t-16.5 -102
q0 -39 12.5 -74t35.5 -61.5t57 -42t76 -15.5q48 0 92 16t81.5 42.5t68 61t52.5 71.5t33.5 74t11.5 69q0 21 -7.5 44t-21.5 41.5t-34 31t-45 12.5q-32 0 -66 -18t-63.5 -48t-51.5 -68t-30 -78q4 -2 3 -2l4 2q10 35 29.5 69.5t45.5 62.5t58 45t69 17q24 0 42.5 -9.5t31 -25
t18.5 -36t6 -41.5q0 -38 -14 -76.5t-38 -74t-55.5 -66.5t-66 -53.5t-70 -35.5t-67.5 -13q-69 0 -110 38.5t-41 107.5q0 79 30 142t78.5 113t109 89t122.5 71q11 5 11 11q0 4 -7 25q-11 33 -18 68.5t-7 70.5q0 53 17 102t47.5 86t72 59t90.5 22q28 0 52.5 -10t43 -27.5
t29.5 -41t11 -50.5q0 -55 -27.5 -95.5t-70.5 -77.5l3 -4q27 24 46.5 43.5t32.5 38.5t19.5 40.5t7.5 51.5z" />
    <glyph glyph-name="fl" horiz-adv-x="2270" 
d="M2265 47q-12 12 -36 22.5t-56 18.5t-71 12.5t-82 4.5q-80 0 -159 -18q-51 -12 -110.5 -30.5t-123 -36.5t-130.5 -30.5t-133 -12.5q-54 0 -106.5 11t-101.5 37q28 17 39 37t11 39q0 22 -12.5 39t-30.5 23q34 12 68.5 20t70.5 8q27 0 56 -5.5t60 -18.5q35 -14 80.5 -28
t101.5 -14q24 0 61.5 6t73 19t61 33t25.5 48q0 33 -19.5 57t-48.5 39.5t-61.5 23t-57.5 7.5q-41 0 -79.5 -9.5t-78.5 -18.5q-21 -5 -51 -15t-64 -21t-69 -19t-65 -8q-43 0 -67 20q10 10 14 22t4 23q0 16 -7 27t-19 11q-14 0 -22 -12t-8 -29q0 -26 16 -49
q-21 -13 -44.5 -17.5t-47.5 -4.5q-28 0 -53.5 4.5t-43.5 9.5q-27 8 -60.5 22.5t-69.5 29t-74.5 25t-76.5 10.5q-28 0 -58.5 -10.5t-56.5 -27.5t-43 -39t-17 -45q0 -34 20 -55.5t49.5 -34t63 -17t60.5 -4.5q35 0 74 4t87 15q28 6 52.5 14.5t47 15.5t44.5 12t45 5t48 -5.5
t54 -19.5q-32 -14 -46 -33.5t-14 -41.5q0 -23 12.5 -43.5t32.5 -34.5q-54 -26 -113.5 -37t-120.5 -11q-51 0 -102.5 6.5t-100 17.5t-93 24.5t-81.5 28.5q-81 32 -156.5 46.5t-141.5 14.5q-71 0 -127 -15t-91 -42q32 20 75.5 29t95.5 9q74 0 161.5 -18.5t180.5 -56.5
q72 -30 164 -50t186 -20q78 0 150 15.5t129 51.5q51 -39 110 -55.5t122 -16.5t129 13t130 31t125 37.5t115 33.5q65 17 125.5 23.5t112.5 6.5q54 0 94 -8t64 -25zM1169 328q0 -10 -4.5 -19.5t-12.5 -14.5q-5 9 -7.5 19t-2.5 18q0 9 3 15t11 6q13 -7 13 -24zM1806 231
q-1 -26 -25.5 -43.5t-58 -28.5t-67.5 -16t-55 -5q-45 0 -89 10.5t-90 29.5q-32 14 -61 19.5t-57 5.5q-36 0 -72.5 -8.5t-81.5 -24.5q-34 17 -63.5 24t-56.5 7q-48 0 -91.5 -15.5t-90.5 -29.5q-51 -11 -89.5 -15.5t-70.5 -4.5q-24 0 -55.5 5t-59.5 17.5t-47.5 32.5t-19.5 50
q0 17 15 33t38 28t50.5 19.5t53.5 7.5q33 0 69.5 -7.5t73.5 -18.5t73.5 -23t70.5 -22q18 -5 41.5 -8.5t48.5 -3.5q31 0 59.5 6.5t46.5 23.5q19 -22 80 -22q44 0 109 10.5t149 40.5q50 18 90 26t79 8q22 0 48.5 -7t50 -20.5t39 -33.5t16.5 -47zM1192 103q0 -19 -12 -38
t-39 -33q-20 11 -32.5 29t-12.5 37q0 17 12 33.5t41 28.5q19 -5 31 -21t12 -36z" />
    <glyph glyph-name="Zcaron" horiz-adv-x="1300" 
d="M2351 -653q0 39 -18.5 72t-49.5 57t-72 37.5t-85 13.5q-20 0 -39.5 -2.5t-39.5 -8.5q-17 32 -48.5 55.5t-71 38.5t-84 22.5t-87.5 7.5q-29 0 -57 -3.5t-53 -9.5q-19 58 -62 106t-104 82.5t-137 54t-162 20.5q-1 45 -18 87t-43.5 76t-60 58.5t-67.5 33.5l240 349
q66 4 126.5 26t110.5 50.5t86 59.5t52 53q14 18 20 34.5t6 29.5q0 37 -43 37q-13 0 -30 -4t-37 -13q-93 -42 -166 -102.5t-139 -148.5q-11 -2 -22 -2h-20q-90 0 -140 44.5t-73 135.5q-19 104 -75.5 178t-135.5 121t-172.5 69t-185.5 22q-57 0 -120 -11t-129 -44
q-68 -33 -117 -77.5t-80.5 -96t-47 -107.5t-15.5 -112q0 -93 41 -178t112 -149t167 -102t207 -38q66 0 128 19.5t110 57t77 91.5t29 124q0 58 -26.5 111.5t-70.5 95t-101.5 66t-120.5 24.5q-44 0 -86 -10.5t-78.5 -31.5t-65 -52t-44.5 -72q45 76 115 113.5t146 37.5
q56 0 111 -22.5t99 -60t71 -87.5t27 -105q0 -77 -30.5 -131t-78.5 -88.5t-107 -50t-116 -15.5q-95 0 -183 35t-156 97t-108.5 147t-40.5 185q0 51 13.5 101.5t43 98.5t76 91.5t111.5 79.5q61 27 122 38.5t122 11.5q92 0 180.5 -23.5t160 -70.5t120.5 -118.5t62 -168.5
q7 -50 34 -86.5t64 -60.5t79 -35.5t79 -11.5h12t12 1l-236 -342q-10 2 -20 3t-21 1q-68 0 -140.5 -35.5t-131.5 -102.5q-11 -12 -14.5 -23t-3.5 -19q0 -17 13 -25t34 -8q24 0 58 13q30 15 62.5 34.5t63.5 41.5t59 46t48 49q77 -17 115.5 -78.5t40.5 -158.5h-2
q-48 0 -114.5 -8.5t-143.5 -26t-159 -44.5t-160.5 -63.5t-148.5 -82.5t-123 -103t-84 -124.5t-31 -145.5q0 -34 11 -64.5t34.5 -54t61 -37t91.5 -13.5q102 0 202.5 36t192 95t170 135.5t136 158t90 162t32.5 146.5v13q72 0 144.5 -19t134 -52.5t105 -79t56.5 -97.5
q-59 -16 -119.5 -46.5t-110 -72.5t-81 -93.5t-31.5 -110.5q0 -37 11 -61t30 -38t43.5 -19.5t50.5 -5.5q60 0 105.5 34.5t75.5 87.5t45 116t15 119q0 43 -9 79q24 6 51.5 9.5t56.5 3.5q40 0 81.5 -6.5t78 -20.5t65.5 -35t46 -49q-50 -20 -72.5 -51t-22.5 -60q0 -23 15.5 -40
t38.5 -17q16 0 30 11.5t23.5 28.5t15 38t5.5 41q0 22 -8 38q36 15 76 15t78 -13.5t67.5 -37.5t47 -56.5t17.5 -69.5q0 -35 -15.5 -73t-41.5 -70t-60.5 -53.5t-73.5 -22.5q46 0 83 22t63.5 56t41 73.5t14.5 75.5zM1620 749q0 -10 -6.5 -24.5t-21.5 -34.5q-23 -33 -62 -63
t-86.5 -54t-99.5 -39t-101 -18q27 37 61 74t71.5 69.5t76 57.5t75.5 39q40 14 64 14q29 0 29 -21zM2043 -542q0 -17 -4.5 -34.5t-13 -32t-19.5 -23.5t-23 -9q-15 0 -24.5 10.5t-9.5 24.5q0 24 22.5 52.5t64.5 47.5q7 -14 7 -36zM1636 -460q0 -57 -18.5 -117t-49 -110
t-70 -83.5t-80.5 -37.5q-57 0 -87 29t-30 80t28.5 99t75 88t105.5 70.5t119 47.5q7 -29 7 -66zM949 130q-50 -57 -104 -97t-111 -70q-30 -11 -52 -11q-15 0 -24 5.5t-9 16.5q0 16 20 40q54 52 116 86t125 34q22 0 39 -4zM1130 -135v-7q0 -44 -15.5 -98t-45 -112.5t-71 -119
t-93.5 -117t-113.5 -106t-130 -86t-143 -58t-153.5 -21.5q-52 0 -87 14t-56.5 37t-30.5 52t-9 58q0 82 44.5 155t119 135t172 111.5t203 85t211.5 55.5t198 22zM800 1209q39 -20 74.5 -56.5t69.5 -79t67 -87t69 -80.5t74.5 -59t83.5 -23q61 0 110 24.5t92.5 63.5t84 88.5
t83 99t90.5 94.5t106 76q-51 -18 -95 -54.5t-85.5 -81t-83 -91.5t-87.5 -85.5t-98.5 -63.5t-116.5 -25q-32 0 -65.5 24.5t-69.5 61.5t-73 80.5t-75 81.5t-77 64t-78 28z" />
    <glyph glyph-name="zcaron" horiz-adv-x="300" 
d="M458 469l-8 3q-23 0 -39.5 -17.5t-31 -40t-29.5 -44t-34 -29.5q-5 -2 -12 -4t-15 -2q-20 0 -31 14q-8 9 -10.5 16t-2.5 13q0 4 0.5 7t1.5 7q2 11 13.5 23t19.5 17l-4 11q-8 -2 -19 -10t-17 -19q-5 -11 -8 -18.5t-3 -21.5q-23 -37 -54.5 -75t-63.5 -73.5t-60 -65
t-44 -48.5q2 0 2.5 -1.5t4.5 -1.5q16 20 45 49.5t61 63t62.5 68t49.5 66.5q8 -16 22 -24t31 -8q22 0 45 14l-323 -338h7q11 8 21 16t26 16q11 7 24 11.5t26 4.5q16 0 27 -8q19 -11 26 -23t10 -28q-24 -26 -65.5 -67t-92 -93.5t-105 -113t-104 -124t-88.5 -127.5t-58 -123
q-6 -20 -6 -34q0 -35 29 -35q11 0 28 6t37 20q75 53 132 105.5t104 110.5t87.5 124.5t83.5 146.5q29 54 41.5 97t12.5 75q0 24 -7 43l146 149l-15 -4l-134 -135q-11 34 -35.5 46t-46.5 12q-14 0 -24 -3zM174 -30q0 -30 -11 -68t-43 -95q-36 -63 -72.5 -124t-78 -121
t-89.5 -118t-106 -114q-26 -25 -48.5 -35.5t-36.5 -10.5q-26 0 -26 30q0 14 6.5 33t20.5 42q25 42 66 96.5t88.5 113t98 117.5t96 109.5t81.5 88.5t54 56zM449 618h-10l-94 -80l-93 80h-11l88 -110h38z" />
    <glyph glyph-name="quotedbl" unicode="&#x22;" horiz-adv-x="726" 
d="M934 975q0 20 -4 35q-3 13 -10.5 19.5t-16.5 6.5q-16 0 -27 -18q-6 -12 -9.5 -21t-3.5 -20q0 -4 0.5 -8t1.5 -9q4 -22 29 -22q0 -44 -9.5 -79t-19.5 -70q6 9 17.5 28.5t23 45t20 54.5t8.5 58zM825 974q0 20 -4 36q-6 26 -23 26q-15 0 -28 -18q-11 -20 -12.5 -32.5
t-1.5 -29.5q2 -9 7.5 -16.5t13.5 -7.5q2 0 8 2q0 -40 -10 -75t-19 -70q6 9 17.5 28.5t23 44.5t20 54t8.5 58z" />
    <glyph glyph-name="dollar" unicode="$" horiz-adv-x="624" 
d="M1290 975q0 -49 -22 -94.5t-59 -80t-85.5 -55t-102.5 -20.5h-18q-9 0 -18 2q69 9 121.5 32.5t88.5 57.5t54.5 74.5t18.5 83.5q0 23 -5 45.5t-17 44.5q-20 37 -61.5 53.5t-88.5 16.5q-32 0 -64 -6t-58 -20q-81 -44 -146.5 -113.5t-125.5 -159.5t-119.5 -197t-128.5 -226
q-9 -17 -19 -34q31 27 64 47q37 17 65 17q49 0 49 -55q0 -16 -6 -41q8 -4 17 -7q25 -11 47 -15.5t41 -4.5q17 0 31 5.5t20 9.5v-6q-15 -10 -32 -12t-19 -2q-36 0 -72 10q-20 6 -36 12q-9 -30 -25 -67q-17 -38 -40.5 -76t-52 -73.5t-60.5 -63.5t-67 -44.5t-71 -16.5
q-20 0 -29 10t-14 24q0 5 -1 14t-1 17q0 5 1 21q-61 -86 -134 -173q-108 -131 -246 -261.5t-316 -255.5q-90 -63 -207 -119t-249 -97.5t-274 -65.5t-283 -24q-117 0 -230.5 18.5t-216.5 60.5t-192.5 109.5t-158.5 165.5q-35 50 -50.5 114.5t-15.5 130.5q0 52 10.5 101.5
t33 92t57 75t82.5 49.5q-42 -31 -71.5 -67.5t-48.5 -76.5t-27.5 -82t-8.5 -84q0 -69 20.5 -132.5t55.5 -110.5q67 -90 154 -152t187.5 -101t211.5 -56.5t226 -17.5q141 0 282.5 23t271.5 62.5t242.5 92.5t195.5 113q130 94 237 195.5t193.5 202t154.5 195.5q14 19 27 37
q-21 -17 -44 -30q-37 -17 -65 -17q-49 0 -49 55q0 19 8 49q9 31 26 69t40.5 76t52 73.5t60.5 63.5t67 44.5t71 16.5q20 0 29 -10t14 -24q0 -5 1 -14t1 -17v-2q21 34 37 59l26 44q86 133 148.5 234t119.5 177t117.5 131t141.5 98q32 17 66 23.5t67 6.5q56 0 104.5 -23.5
t78.5 -76.5q15 -38 15 -75zM255 37q0 -12 8.5 -21.5t22.5 -9.5q28 0 60.5 25.5t65.5 64.5t64 86.5t55.5 91.5t41.5 78.5t21 48.5q2 8 2 12q0 27 -32 27q-14 0 -31.5 -5.5t-37.5 -19.5q-42 -30 -80 -69q-53 -88 -113 -180q-16 -25 -34 -51q-13 -42 -13 -78zM357 403
q0 12 -8.5 21.5t-22.5 9.5q-28 0 -60.5 -25.5t-65.5 -64.5t-64 -86.5t-55.5 -91.5t-41.5 -78.5t-21 -48.5q-2 -8 -2 -12q0 -27 32 -27q14 0 31.5 5.5t37.5 19.5q33 23 64 52q38 56 70 107q53 82 91 147q4 6 7 13q8 31 8 59z" />
    <glyph glyph-name="ampersand" unicode="&#x26;" horiz-adv-x="700" 
d="M770 458q-7 4 -24 4q-11 0 -24.5 -2t-27 -4.5t-25.5 -6t-19 -6.5q-8 4 -18 6.5t-24 2.5q-52 0 -94.5 -22.5t-79 -58t-68.5 -78t-63 -81.5q-16 22 -32 43t-27 43q23 23 46 48.5t42 52.5t30.5 55t11.5 55q0 28 -14 45t-36 17q-33 0 -55.5 -22.5t-37 -53.5t-20.5 -64t-6 -54
q0 -25 4 -46t9 -37q-34 -29 -60.5 -54t-49 -49.5t-42.5 -50.5t-41 -57q-11 -22 -11 -39q0 -20 12.5 -32.5t36.5 -12.5q36 0 67 16.5t58 41.5t51.5 54.5t47.5 55.5q29 -35 41.5 -70t12.5 -68q0 -38 -15 -72.5t-41.5 -62.5t-62 -49t-77.5 -31q46 7 88 30t73.5 57t50.5 75.5
t19 85.5q0 37 -16 67.5t-48 73.5q36 46 67 89t64 77t71.5 54.5t90.5 20.5q23 0 31 -8q-22 -14 -44 -29t-40 -32.5t-29 -37.5t-11 -43q0 -25 13.5 -39.5t36.5 -14.5q18 0 39 12t39.5 30.5t30.5 41t12 44.5q0 20 -6 36.5t-16 27.5q8 7 23 12t31.5 8t31.5 4.5t23 1.5zM671 370
q0 -20 -11.5 -40.5t-29 -37.5t-37.5 -27.5t-36 -10.5q-12 0 -20 6t-8 19q0 34 32.5 75t88.5 75q13 -9 17 -24t4 -35zM360 509q0 -20 -9 -44.5t-25 -51.5t-38.5 -53.5t-49.5 -49.5q-19 46 -19 96q0 16 6 43t18.5 52.5t32.5 44t47 18.5q17 0 27 -14t10 -41zM279 182
q-19 -24 -41 -53.5t-47.5 -56t-56 -44.5t-66.5 -18q-42 0 -42 34q0 15 10 32q27 44 75 95.5t111 106.5q13 -30 26.5 -52t30.5 -44z" />
    <glyph glyph-name="quotesingle" unicode="'" horiz-adv-x="190" 
d="M320 694q0 21 -5 30t-15 9q-11 0 -24 -10q-8 -7 -14 -11t-10 -9t-6.5 -13t-5.5 -21q0 -26 18 -26q-3 -16 -12 -32.5t-21 -33t-25.5 -33t-25.5 -32.5q10 7 32 24t45.5 41t43 54t25.5 63z" />
    <glyph glyph-name="plus" unicode="+" horiz-adv-x="436" 
d="M381 236h-109l62 113h-40l-65 -113h-91l-22 -33h94l-61 -98h43l62 98h102z" />
    <glyph glyph-name="comma" unicode="," horiz-adv-x="297" 
d="M189 54q0 20 -5 27.5t-14 7.5q-12 0 -25 -9q-14 -14 -24.5 -26.5t-15.5 -39.5q0 -22 18 -22q-3 -16 -11.5 -32.5t-20.5 -33t-25.5 -33.5t-25.5 -35q9 8 32 27.5t47.5 46t45 58t24.5 64.5z" />
    <glyph glyph-name="hyphen" unicode="-" horiz-adv-x="436" 
d="M381 236h-243l-22 -33h240z" />
    <glyph glyph-name="period" unicode="." horiz-adv-x="312" 
d="M198 82q0 25 -19 25q-11 0 -23 -9q-20 -14 -28 -33t-8 -33q0 -32 20 -32q9 0 20 7q16 14 23.5 27t12.5 35q1 4 1.5 7t0.5 6z" />
    <glyph glyph-name="slash" unicode="/" horiz-adv-x="3250" 
d="M3807 1134q0 72 -41.5 125.5t-108.5 89t-152.5 52.5t-172.5 17q-68 0 -143 -19t-151 -41.5t-150 -41t-141 -18.5q-47 0 -82.5 13t-54.5 44q12 8 25.5 21.5t13.5 24.5q0 10 -13 16q-11 0 -20.5 -5.5t-16.5 -14t-10.5 -18t-3.5 -16.5l-98 -69q1 5 1 10v10q0 27 -10.5 44.5
t-27.5 28t-39.5 15t-47.5 4.5q-72 0 -167 -40l4 -11q38 21 78 31.5t75 10.5q42 0 70.5 -16.5t28.5 -52.5q0 -18 -8.5 -38t-22.5 -36q-52 -33 -90 -64.5t-55 -55.5q-9 -14 -9 -23q0 -13 15 -13q17 0 45 17q47 36 84 77.5t61 79.5l117 73q35 -32 77 -45.5t87 -13.5
q75 0 150 18t149.5 39t148 39t145.5 18q73 0 148 -15t136.5 -47.5t100.5 -82.5t39 -120q0 -68 -23.5 -122.5t-64 -97t-94.5 -73.5t-114.5 -50.5t-124.5 -29t-125 -9.5q-45 0 -99.5 10t-102.5 33t-80 60.5t-32 92.5q0 41 20.5 73t52 56t70 40.5t74 27t64 15t40.5 4.5
q-25 0 -59 -5t-71.5 -15.5t-74 -27.5t-65.5 -41t-47 -56t-18 -72q0 -38 16.5 -68t44 -52.5t63 -38.5t72.5 -26t73.5 -14.5t65.5 -4.5q57 0 122.5 9.5t129.5 29t122.5 50.5t103.5 74.5t71.5 99.5t26.5 127zM2845 1053q0 21 -11.5 36.5t-29.5 26t-41.5 16t-47.5 5.5
q-76 0 -152.5 -25t-151 -66t-145 -94.5t-134.5 -111.5t-120 -115.5t-100 -106.5l-109 -15q29 34 73.5 80t95 95t102 95.5t93.5 82.5q-33 -26 -84 -65.5t-107 -86.5t-110 -98.5t-92 -102.5l-131 -14l255 320q23 28 33 46t10 27q0 10 -11 10q-13 0 -37.5 -14.5t-56.5 -39.5
q-65 -50 -117.5 -95.5t-99 -90t-91.5 -88.5t-96 -90q-115 -8 -242.5 -24.5t-259.5 -51.5q1 8 1.5 15t0.5 14q0 59 -22.5 105t-63 78t-97.5 49t-126 17q-54 0 -112.5 -13.5t-115 -39.5t-108 -63.5t-90.5 -85.5t-62 -106t-23 -125q0 -69 21.5 -122t47.5 -83
q-138 -112 -210 -244.5t-72 -288.5q0 -112 43 -201.5t116.5 -152.5t171.5 -96.5t207 -33.5q67 0 148.5 17.5t164.5 50.5t161.5 82t139 112.5t97.5 140.5t37 167q0 53 -20.5 93.5t-54.5 67.5t-78.5 40.5t-93.5 13.5q-71 0 -131.5 -27.5t-109.5 -73t-85 -104.5t-56 -123
q22 54 57.5 110.5t83.5 102.5t107.5 75.5t130.5 29.5q43 0 84 -14.5t72 -39t50 -56.5t19 -68q0 -94 -38.5 -173t-100 -143t-139 -113t-156 -82t-150.5 -50t-123 -17q-127 0 -226 36.5t-166.5 100.5t-102.5 152t-35 190q0 67 17.5 134.5t52 132t84.5 124.5t115 113
q64 -69 142.5 -98.5t166.5 -29.5q64 0 130.5 13.5t133 36.5t131.5 54.5t125 67.5q68 40 129.5 91t114.5 103.5t98 102.5t80 88l135 15q-55 -60 -108 -125t-99.5 -126t-83 -112t-58.5 -84q-20 -29 -29.5 -55.5t-9.5 -46.5q0 -18 8 -29t24 -11q25 0 70 30.5t108 107.5l389 473
l115 18q-38 -46 -78 -102t-73 -114.5t-54.5 -116.5t-21.5 -107q0 -33 11 -61t39 -48q26 -18 54.5 -25t55.5 -7q39 0 75.5 13t68.5 33q23 19 42.5 38t37.5 40.5t36.5 48.5t40.5 62q-18 -29 -41 -56t-46 -50.5t-44.5 -42t-36.5 -29.5q-33 -20 -61.5 -28.5t-54.5 -8.5
q-31 0 -59 11.5t-57 32.5q-20 23 -20 62q0 44 23.5 101.5t60 119t81 123t87.5 114.5q33 6 65 13t74 13q114 16 223 50t203 81t168 103.5t118 118.5q24 34 24 64zM2403 1225q-6 -9 -21 -27.5t-32 -38t-33 -34t-24 -14.5q-5 0 -6 4q0 11 11 25t28 29t37.5 29.5t39.5 26.5z
M2832 1051q0 -13 -5.5 -28t-19.5 -31q-55 -62 -133.5 -118t-171.5 -102.5t-195.5 -80t-205.5 -48.5l-120 -18q35 43 85.5 96.5t111 109.5t128 109t137.5 94.5t139 66.5t133 25q22 0 43 -5t37.5 -14.5t26.5 -23.5t10 -32zM1922 972q0 -5 -9 -19t-30 -37l-291 -331l-127 -11
q45 45 84 85.5t79.5 81t87.5 83.5t109 92q29 24 56 42t37 18q4 0 4 -4zM1763 589l-374 -469q-59 -74 -100 -102.5t-57 -28.5q-11 0 -11 13q0 28 51 96l357 476zM1414 552q-34 -34 -73 -81t-87.5 -99t-109 -104.5t-137.5 -97.5q-128 -75 -249.5 -117t-230.5 -42
q-88 0 -164.5 31.5t-141.5 102.5q58 44 117 83.5t109 61.5q26 -42 63.5 -60t79.5 -18q52 0 106.5 21.5t102 58t82 84t46.5 100.5q23 7 60 15.5t80.5 16.5t91.5 15.5t94.5 13.5t88 10t72.5 5zM909 472q-16 -54 -51 -98.5t-79.5 -76t-94 -49t-94.5 -17.5q-42 0 -75 16t-50 51
q102 57 217 100.5t227 73.5zM917 538q0 -10 -1.5 -20.5t-3.5 -23.5q-59 -17 -112.5 -35t-107.5 -39t-111.5 -47t-122.5 -57q-7 15 -7 34q0 20 13 44t45 53q-19 -6 -33.5 -18t-24 -27t-14 -31t-4.5 -31q0 -17 7 -31q-22 -10 -50.5 -26t-59.5 -35.5t-62 -42t-58 -45.5
q-24 29 -45.5 78.5t-21.5 114.5q0 63 21 118t56.5 100.5t83 81.5t100 61t107 38t105.5 13q61 0 115.5 -15.5t95.5 -45t65.5 -71.5t24.5 -95z" />
    <glyph glyph-name="zero" unicode="0" horiz-adv-x="400" 
d="M343 322q0 11 -1.5 21t-3.5 20q-6 25 -25.5 42t-51.5 17q-25 0 -56.5 -13.5t-70.5 -45.5q-33 -27 -58 -61.5t-42 -71t-25.5 -72t-8.5 -64.5q0 -18 3 -33t11 -25q10 -17 32 -26.5t50 -9.5q26 0 54.5 10.5t52.5 32.5q28 25 53.5 59t44.5 71.5t30.5 75.5t11.5 73zM294 311
q0 -60 -27 -124.5t-89 -136.5q-44 -30 -69 -30t-37 30q-7 19 -7 44q0 30 8 69t23.5 78t38 74.5t50.5 58.5q31 27 58 27q35 0 47 -45q2 -11 3 -22.5t1 -22.5z" />
    <glyph glyph-name="one" unicode="1" horiz-adv-x="268" 
d="M280 447q-4 -2 -21 -17t-41 -37.5t-51 -48t-51 -48t-41 -38.5t-21 -18q6 0 21 10t31.5 22.5t30 22.5t15.5 10q-20 -37 -38 -74t-35.5 -74.5t-36.5 -76.5t-42 -80h54q28 57 60 121.5t62.5 126t57.5 114t46 85.5z" />
    <glyph glyph-name="two" unicode="2" horiz-adv-x="453" 
d="M450 381q0 14 -2.5 22.5t-4.5 10.5q-9 18 -32.5 27.5t-55.5 9.5q-22 0 -46.5 -5t-48.5 -15.5t-46 -26t-40 -37.5q-13 -11 -22 -29t-9 -36q0 -20 16.5 -36t58.5 -19q-20 15 -30.5 34.5t-10.5 40.5q0 32 23.5 61t71.5 46q8 4 19.5 6.5t23.5 2.5q13 0 25 -3t20 -10
q19 -13 19 -45q0 -22 -8.5 -48.5t-25.5 -51.5q-30 -45 -70 -83.5t-86 -72t-94.5 -64t-94.5 -60.5h14q10 3 17.5 6.5t15.5 8t18 11t25 14.5q23 10 44 10q23 0 41.5 -10t35.5 -21l7 -5q37 -14 69 -14q30 0 62 11.5t72 35.5l-3 7q-26 -20 -45.5 -28t-36.5 -8q-22 0 -40 10
t-38 22.5t-45 22.5t-61 10q19 14 46 29.5t60 38t69.5 53.5t75.5 76q28 32 37.5 57.5t9.5 43.5z" />
    <glyph glyph-name="three" unicode="3" horiz-adv-x="428" 
d="M370 373q0 35 -21.5 55t-55.5 20q-31 0 -64 -16q-47 -23 -69 -51.5t-22 -54.5q0 -20 12.5 -35t38.5 -22q-10 8 -18 23.5t-8 35.5q0 23 15 49.5t54 47.5q21 11 39 11q24 0 37 -19t13 -51q0 -13 -2 -27t-7 -30q-10 -28 -27.5 -51t-55.5 -37v-14q22 15 37 15q12 0 17.5 -9
t5.5 -24q0 -20 -8.5 -46t-22.5 -49q-9 -15 -23 -29t-31 -24.5t-35 -17t-34 -6.5q-14 0 -26 6t-19 20q15 5 23.5 18.5t8.5 28.5q0 17 -12.5 31.5t-40.5 16.5q-23 -2 -36.5 -19t-13.5 -40q0 -18 10 -36.5t32 -32.5q17 -5 36.5 -8.5t41.5 -3.5q42 0 87.5 15.5t85.5 55.5
q38 46 38 90q0 52 -52 88q17 11 27 25t27 33q18 39 18 68z" />
    <glyph glyph-name="four" unicode="4" horiz-adv-x="600" 
d="M530 76h-178l135 244q-25 -8 -51 -32.5t-51.5 -58.5t-49.5 -74t-45 -79h-200l371 389v36l-447 -454h262q-47 -94 -89.5 -155t-77.5 -96q36 0 68 21.5t60.5 56.5t53 80.5t47.5 92.5h182z" />
    <glyph glyph-name="five" unicode="5" horiz-adv-x="399" 
d="M480 400q-18 -7 -35 -7q-18 0 -30.5 7t-21.5 16t-15.5 18.5t-10.5 15.5l-200 -229q20 0 42 8t42 8q11 0 21 -5q11 -5 18 -15.5t7 -26.5q0 -26 -25 -74q-14 -27 -37 -54t-50 -41q-8 -4 -21 -4q-18 0 -35 7.5t-17 15.5q17 6 25 20t8 29q0 20 -12 36t-37 16h-2
q-31 -1 -44 -20.5t-13 -42.5q0 -20 7.5 -37.5t20.5 -22.5q25 -11 46 -15t41 -4q23 0 45 5.5t46 16.5q25 11 48 28t40.5 38t27.5 44t10 45q0 18 -7 34t-24 30q-17 11 -38.5 18t-44.5 7q-17 0 -30 -4l109 128q14 -16 30.5 -22.5t34.5 -6.5q26 0 48.5 11.5t32.5 28.5z" />
    <glyph glyph-name="six" unicode="6" horiz-adv-x="373" 
d="M643 698q-55 -4 -122 -32.5t-136.5 -73.5t-135 -103.5t-117 -123t-82.5 -131.5t-31 -129q0 -13 1 -25.5t5 -25.5q8 -30 35.5 -43t61.5 -13q22 0 46 5t46 14t41 20.5t32 23.5q50 48 73 93.5t23 83.5q0 30 -12 53t-33 36q-17 11 -39 11q-36 0 -78.5 -31t-82.5 -93h11
q35 49 72 72t64 23q16 0 27 -8q22 -13 22 -52q0 -33 -18.5 -77t-61.5 -82q-39 -35 -70 -53.5t-53 -18.5q-37 0 -51 62q0 61 25 126.5t67.5 129t99 123t119 108t127.5 83t125 48.5z" />
    <glyph glyph-name="seven" unicode="7" horiz-adv-x="399" 
d="M432 450h-29q-18 -8 -40.5 -14.5t-46 -11t-46 -7t-40.5 -2.5q-17 0 -29 2.5t-16 7.5q12 14 25 27t13 26q0 12 -13 20q-44 0 -65 -21.5t-21 -43.5q0 -11 5 -20t16 -13l-47 -62h14q6 5 10 10.5t8.5 12t11.5 14.5t18 17q12 -11 38 -11q16 0 34.5 3.5t38 8t38.5 8.5t36 6
l-458 -651h94z" />
    <glyph glyph-name="eight" unicode="8" horiz-adv-x="375" 
d="M457 405q0 11 -2.5 22.5t-7.5 22.5q-11 27 -36 41.5t-55 14.5q-29 0 -58.5 -13t-54.5 -39q-20 -20 -31 -41.5t-11 -50.5q0 -35 17 -79q-30 -9 -53 -17.5t-41.5 -18t-35 -21t-34.5 -26.5q-25 -32 -35 -59.5t-10 -50.5q0 -27 11.5 -46t26.5 -30q11 -8 27 -11t34 -3
q26 0 52.5 6t42.5 15q28 21 46 40t29 39.5t15.5 43t4.5 49.5v10q-1 22 -7.5 40.5t-14.5 35.5t-16.5 35t-12.5 38q-1 5 -1.5 9.5t-0.5 9.5q0 19 7 40t20 36q32 35 71 35q35 0 60 -32q18 -26 18 -56q0 -38 -26.5 -78.5t-74.5 -75.5v-8q25 16 50 35t44 41t31 46.5t12 50.5z
M256 148q0 -32 -14.5 -61.5t-52.5 -54.5q-27 -13 -53 -13q-31 0 -51 19t-20 52q3 23 13.5 49t30 50.5t47.5 46t65 36.5q14 -30 24.5 -61.5t10.5 -62.5z" />
    <glyph glyph-name="nine" unicode="9" horiz-adv-x="300" 
d="M349 330q0 24 -8.5 46t-22.5 39t-32.5 27t-37.5 10q-35 0 -67 -14.5t-59.5 -37.5t-49.5 -53t-37.5 -60t-24 -58.5t-8.5 -49.5q0 -39 26 -60t63 -21q22 0 45.5 6.5t45.5 18.5t41 29t31 37q-57 -111 -120 -196.5t-128.5 -149.5t-132 -108.5t-132.5 -73.5q112 42 208 108
t171.5 142.5t128 157t78.5 152.5q11 29 16.5 56t5.5 53zM304 343q0 -55 -24 -100q-15 -27 -35.5 -48.5t-43.5 -37.5t-46.5 -24.5t-43.5 -8.5q-32 0 -45.5 21.5t-13.5 50.5q0 34 14 76t39 79t57.5 62t70.5 25q20 0 33.5 -10.5t22 -25.5t12 -31t3.5 -28z" />
    <glyph glyph-name="colon" unicode=":" horiz-adv-x="319" 
d="M305 272q0 20 -5.5 28t-15.5 8q-13 0 -26 -10q-20 -14 -27 -27.5t-10 -38.5q-1 -5 -1.5 -8t-0.5 -7q0 -23 17 -23q10 0 22 9q22 14 32 28t15 41zM192 90v4q0 15 -5 22t-13 7q-9 0 -25 -11q-20 -17 -27 -34.5t-10 -45.5q0 -31 17 -31q9 0 23 9q22 17 30 35t10 45z" />
    <glyph glyph-name="semicolon" unicode=";" horiz-adv-x="370" 
d="M267 194q0 19 -13 19q-8 0 -25 -10q-20 -14 -29.5 -28t-14.5 -41q0 -20 5 -28t13 -8q9 0 22 11q22 14 28.5 29t11.5 40q1 5 1.5 8.5t0.5 7.5zM191 36q0 23 -18 23q-11 0 -24 -9q-17 -14 -29.5 -34t-18.5 -42q0 -12 4.5 -20.5t14.5 -8.5q-3 -15 -12 -30.5t-21 -32
t-25.5 -33.5t-25.5 -35q9 7 32 28.5t48 50.5t46 63t27 65q2 10 2 15z" />
    <glyph glyph-name="equal" unicode="=" horiz-adv-x="436" 
d="M381 254h-243l-22 -33h240zM381 171h-243l-22 -33h240z" />
    <glyph glyph-name="question" unicode="?" horiz-adv-x="579" 
d="M588 644q0 29 -9.5 51.5t-18.5 31.5q-20 20 -43 28.5t-46 8.5q-44 0 -82.5 -24.5t-58.5 -63.5l33 -4q13 26 39 39.5t54 13.5q40 0 64 -24q23 -21 23 -59q0 -34 -25.5 -72t-88.5 -69q-38 -19 -73 -42t-66.5 -57.5t-59.5 -83.5t-52 -118l25 -8q3 38 23.5 82t54.5 85
t78.5 75t94.5 53q39 15 65 34t41.5 39.5t21.5 42t6 41.5zM173 96q0 25 -19 25q-11 0 -23 -9q-20 -14 -28 -33t-8 -33q0 -32 20 -32q9 0 20 7q16 14 23.5 27t12.5 35q1 4 1.5 7t0.5 6z" />
    <glyph glyph-name="at" unicode="@" horiz-adv-x="707" 
d="M796 388q0 23 -2 44t-4 40h-11q2 -17 3 -35t1 -37q0 -61 -14.5 -125t-42.5 -124.5t-68 -114.5t-91.5 -95t-113 -64.5t-131.5 -23.5q-54 0 -102 17t-84.5 48.5t-58 77.5t-21.5 105q0 43 17 93.5t47 100.5t71.5 96.5t90 82.5t102.5 57.5t110 21.5q85 0 125.5 -35t40.5 -100
q0 -35 -10.5 -79t-29.5 -89.5t-46 -89t-59.5 -77.5t-70.5 -54.5t-79 -20.5q-16 0 -22.5 8.5t-6.5 19.5q0 20 11 36q27 44 62 99.5t68 109t60.5 98.5t41.5 68h-47q-11 -11 -16.5 -23.5t-16.5 -23.5q-8 27 -21 37t-30 10q-16 0 -33 -6.5t-32 -11.5q-39 -21 -84.5 -58t-85 -85
t-66 -104t-26.5 -115q0 -27 10 -47t39 -20q12 0 30 5t41 20q20 13 35.5 28.5l26.5 26.5q-2 -7 -3.5 -16.5t-1.5 -20.5q0 -24 10 -34.5t37 -10.5q55 0 101 22.5t82 58t63 80.5t44.5 91.5t26.5 90t9 76.5q0 72 -44.5 109.5t-132.5 37.5q-54 0 -110 -21t-109 -57t-100 -84
t-82.5 -103t-56 -113.5t-20.5 -115.5q0 -49 22.5 -96t62.5 -84t96 -59.5t123 -22.5q98 0 182.5 46t148.5 125.5t102 184.5t43 224zM485 396q0 -5 -1 -11.5t-3 -14.5q-22 -34 -50.5 -80.5t-59 -93.5t-60.5 -87.5t-55 -61.5q-17 -15 -38 -25t-37 -10q-14 0 -19.5 9.5
t-5.5 23.5q0 46 26 99.5t63 104t77 93t68 68.5q16 14 31.5 21t28.5 7q16 0 25.5 -10.5t9.5 -31.5z" />
    <glyph glyph-name="A" unicode="A" 
d="M2475 828q0 46 -16.5 89t-50.5 76t-86 52.5t-122 19.5q-85 0 -164.5 -24.5t-153 -66.5t-141 -98.5t-127.5 -121t-113 -134t-98 -137.5q-47 23 -95 54t-86.5 71.5t-63 90.5t-24.5 111q0 84 38 155t101.5 128t145.5 100.5t171 72.5t178.5 44t166.5 15q127 0 239 -25
t193 -71v3q-112 60 -226.5 86.5t-228.5 26.5q-93 0 -188 -15t-183.5 -45t-165.5 -76t-134 -107t-90 -138.5t-33 -171.5q0 -71 27 -125.5t67 -95.5t85.5 -69.5t83.5 -47.5q-17 -24 -49 -66t-76.5 -92t-99.5 -101.5t-116 -93.5t-127 -68.5t-133 -26.5q-44 0 -84 11.5t-82 28.5
q65 32 107.5 71t61.5 75q22 -12 49.5 -18.5t56.5 -6.5q48 0 92.5 18.5t78.5 50t54 73t20 87.5q0 64 -23.5 109.5t-63 74.5t-91 43t-108.5 14q-54 0 -114.5 -12t-111.5 -42q-29 36 -87 57.5t-136 21.5q-68 0 -135 -24.5t-120 -70.5t-86 -111.5t-33 -147.5q0 -72 27.5 -129
t74.5 -97t109.5 -61t131.5 -21q60 0 119.5 11t104.5 26q58 -23 102.5 -31.5t86.5 -8.5q66 0 131.5 20t128 53.5t120.5 77.5t108 92t91.5 97t71.5 92q17 -8 45.5 -16t52.5 -13q-28 -48 -40.5 -93t-12.5 -85q0 -55 16 -96.5t45.5 -69.5t69.5 -42t88 -14q51 0 105 17t105 45.5
t96.5 65.5t79.5 78t54 82.5t20 78.5q0 45 -21.5 64.5t-55.5 19.5q-51 0 -101.5 -30.5t-90.5 -76t-65 -98.5t-25 -97q0 -40 13 -69q-9 25 -9 54q0 44 25 96t64.5 97t88 75t96.5 30q26 0 42.5 -15.5t16.5 -49.5q0 -42 -20.5 -84.5t-55 -81.5t-79.5 -73t-95 -59.5t-101.5 -40
t-98.5 -14.5q-70 0 -111 35.5t-41 118.5q0 44 12 99.5t47 120.5q17 -2 37 -3.5t37 -1.5q94 0 183 34t152 99q24 -17 54.5 -24t63.5 -7q72 0 137 30t113.5 79t77.5 110t29 124zM2456 837q0 -63 -30.5 -123t-79.5 -107t-111.5 -75.5t-127.5 -28.5q-27 0 -52 6.5t-45 20.5
q46 50 64.5 86.5t18.5 77.5q0 29 -15.5 51t-41.5 22q-22 0 -39.5 -12t-29.5 -31t-18.5 -41t-6.5 -43q0 -26 9.5 -58t29.5 -52q-57 -57 -126.5 -83t-164.5 -26q-19 0 -39 1t-41 3q66 118 130.5 201t130.5 144t135 107.5t143 92.5q-63 -30 -137 -71t-152.5 -103t-158 -149.5
t-152.5 -210.5q-22 4 -35.5 7t-23 5.5t-17.5 5.5t-19 7q34 60 81 127t103.5 132.5t122 125.5t137 105.5t147.5 72.5t155 27q68 0 116.5 -20.5t79.5 -52t45.5 -69.5t14.5 -72zM2078 705q0 -28 -9 -52.5t-22.5 -44.5t-28 -36.5t-24.5 -29.5q-17 18 -26 44.5t-9 48.5q0 23 6 44
t16.5 37.5t24.5 26t31 9.5q14 0 26.5 -13.5t14.5 -33.5zM1114 407q0 -51 -19 -92.5t-51 -71.5t-74 -46.5t-89 -16.5q-49 0 -92 23q9 20 13 38t4 32q0 20 -9 38.5t-30 18.5q-17 0 -26.5 -17.5t-9.5 -36.5q0 -28 14 -48t29 -28q-14 -29 -35.5 -52t-45.5 -41t-48.5 -31.5
t-44.5 -22.5q-48 23 -75 52t-38 51q44 15 80.5 42t62.5 61t40.5 73.5t14.5 80.5q0 34 -11.5 76.5t-34.5 74.5q60 36 117.5 43t108.5 7t96 -14t79 -40.5t54 -65t20 -87.5zM795 271q0 -26 -17 -61q-19 11 -27 30t-8 36q0 11 7 26.5t18 15.5q6 0 11 -5t8.5 -12t5.5 -15.5
t2 -14.5zM666 425q0 -37 -11.5 -75t-34.5 -72.5t-59 -62.5t-85 -45q-22 37 -22 89q0 36 10 77t31 80.5t52.5 75t74.5 62.5q18 -23 31 -58.5t13 -70.5zM607 572q-47 -29 -80 -65.5t-54 -75.5t-30.5 -79.5t-9.5 -77.5q0 -58 25 -111q-20 -5 -37.5 -6.5t-34.5 -1.5
q-40 0 -72.5 14t-55 37t-35 52t-12.5 58t11 58.5t31.5 53t50 38t66.5 14.5q-43 0 -75 -13t-53 -35t-31.5 -51t-10.5 -60q0 -32 12 -63.5t36 -57.5t61.5 -42t88.5 -16q17 0 34.5 2t36.5 5q19 -30 50 -60t61 -44q-40 -14 -93.5 -23t-104.5 -9q-67 0 -128.5 19.5t-108.5 57.5
t-75 93t-28 127q0 75 29.5 137t78.5 106t113 68.5t133 24.5q64 0 118 -16.5t93 -57.5z" />
    <glyph glyph-name="B" unicode="B" horiz-adv-x="2163" 
d="M2523 1076q-6 1 -12 1h-14q-29 0 -67.5 -4t-79 -11.5t-80 -17t-70.5 -21.5q-35 66 -87.5 114.5t-119 80.5t-144 47.5t-160.5 15.5q-88 0 -180 -18t-182 -53t-175.5 -88t-160.5 -122q-32 30 -70.5 51t-82.5 34.5t-92.5 20t-98.5 6.5q-87 0 -167 -23t-149.5 -64.5
t-126.5 -98.5t-98 -124.5t-63.5 -143.5t-22.5 -155q0 -147 50 -251.5t136 -170.5t201.5 -97t246.5 -31q67 0 135.5 6.5t134.5 19t127.5 30.5t115.5 41q117 51 217 133.5t185.5 177t157.5 189.5t131 170q43 54 79 95t73.5 73.5t80.5 60t100 56.5q9 -16 13 -45.5t4 -51.5
q0 -41 -10 -82.5t-28 -81.5t-44 -76.5t-58 -67.5q-20 5 -40.5 7.5t-40.5 2.5q-48 -1 -93.5 -10.5t-81 -26t-57 -39t-21.5 -50.5q0 -13 11 -25t40 -12q50 0 95.5 14t84 34t68.5 43t50 40q18 -7 29.5 -23.5t18.5 -38.5t9.5 -46.5t2.5 -48.5q0 -46 -14.5 -94t-41 -93.5t-62 -86
t-78 -70.5t-90 -47.5t-96.5 -17.5q-16 0 -32 4.5t-29 13t-21 21t-8 28.5q0 44 28 80.5t71 66.5t95.5 53t101.5 40.5t88.5 29t56.5 18.5q-13 0 -52.5 -9t-91 -26t-108 -41.5t-104 -56.5t-78 -70t-30.5 -82q0 -23 10.5 -38.5t27 -25.5t37 -14.5t41.5 -4.5q53 0 105 17t100 46
t89 68t71 82.5t47 89.5t17 89q0 65 -26 119.5t-77 81.5q43 42 71.5 78t46 69t24.5 65.5t7 67.5q0 34 -8.5 68.5t-23.5 69.5q34 15 74.5 27t82.5 21t83 13.5t76 4.5zM2051 584q-20 -20 -51.5 -41.5t-68 -39.5t-75 -30t-71.5 -12q-29 0 -29 28q0 24 21 43.5t54 33t72.5 21.5
t76.5 8q36 0 71 -11zM2185 1018q-49 -21 -94 -46.5t-87.5 -57t-84 -70t-83.5 -84.5q-41 -45 -87 -104t-97.5 -124t-109.5 -131.5t-121.5 -127.5t-134.5 -111t-148 -82q-54 -23 -116.5 -41t-129 -30.5t-135.5 -19.5t-136 -7q-125 0 -231.5 32t-185.5 96.5t-123.5 161.5
t-44.5 228q0 80 22 155t61.5 141t95 121t123.5 94t146 61t162 22q107 0 194 -29.5t134 -79.5q-90 -97 -133.5 -195.5t-43.5 -186.5q0 -96 50 -167q-51 -38 -118 -60.5t-134 -22.5q-48 0 -89 13.5t-71 39t-47 63t-17 86.5q0 56 28.5 106t87.5 77q-32 -10 -56 -30t-40.5 -45.5
t-25 -56t-8.5 -61.5q0 -52 19.5 -91.5t54 -66t80.5 -40t100 -13.5q66 0 133 19t121 57q45 -41 96 -58.5t105 -17.5q50 0 103 14.5t103 40t94 61t77 78t52.5 90t19.5 97.5q0 76 -36.5 116t-101.5 40q-40 0 -82.5 -21.5t-80.5 -71.5q42 45 83.5 64t77.5 19q54 0 84.5 -32
t30.5 -83q0 -76 -36.5 -145.5t-96.5 -123t-137 -85t-157 -31.5q-50 0 -94.5 14t-78.5 46q110 79 157.5 170t47.5 177q0 61 -20.5 115t-56.5 95q63 68 143.5 121t170 90t184 56t186.5 19q78 0 150.5 -14.5t135.5 -44.5t113.5 -76.5t83.5 -110.5zM1047 800q0 -45 -10.5 -93.5
t-32.5 -95.5t-56.5 -89.5t-82.5 -74.5q-41 57 -41 139q0 44 12 92t35 96.5t55.5 95.5t73.5 90q29 -34 38 -71.5t9 -88.5z" />
    <glyph glyph-name="C" unicode="C" horiz-adv-x="537" 
d="M803 1010q0 29 -13 37t-30 8q-34 0 -69 -15t-70 -39.5t-68.5 -55.5t-64.5 -63t-59 -62t-51 -53q-11 -1 -21 -1.5t-21 -0.5q-39 0 -77.5 7t-69 22.5t-49.5 39.5t-19 58q0 15 2.5 29t10.5 28q8 -18 24.5 -37.5t40.5 -35.5t54.5 -26.5t66.5 -10.5q58 0 95 27.5t37 71.5
q0 26 -11.5 45.5t-31 32t-45 18.5t-53.5 6q-18 0 -40.5 -2t-45.5 -9.5t-46 -22t-42 -40.5q-7 18 -7 43q0 20 7 42.5t23 43.5t42.5 39.5t66.5 32.5q-41 -12 -69 -30.5t-45.5 -40.5t-25.5 -46t-8 -46q0 -14 2.5 -25.5t6.5 -22.5q-10 -19 -12.5 -34.5t-2.5 -29.5
q0 -41 23.5 -69t58.5 -44.5t74 -23.5t71 -7h10q6 0 11 1q-25 -31 -56 -71.5t-63 -88t-63 -99.5t-55 -106.5t-39 -109t-15 -106.5q0 -31 7 -61.5t22.5 -54.5t41 -39t61.5 -15q40 0 80.5 16.5t77 44t68.5 64t55 76t36.5 80t13.5 75.5q0 17 -5 35t-14.5 32.5t-23.5 24t-33 9.5
q-38 0 -74 -21.5t-64.5 -54.5t-48 -73t-25.5 -77l7 -4q7 33 25 71t44 70.5t59.5 54.5t72.5 22q31 0 46 -23t15 -51t-11 -65.5t-31 -77t-47.5 -78t-60.5 -68.5t-70 -48.5t-76 -18.5q-27 0 -48.5 11t-36 29.5t-22 43t-7.5 51.5q0 59 18.5 121t48 121.5t65.5 115t71 103
t65 84.5t47 59q82 12 152 39t121 63t80 77t29 79zM788 1017q0 -23 -24.5 -58.5t-71 -72.5t-112.5 -69t-148 -47q21 23 45.5 52t51 59t55 59t58 51.5t60 36t61.5 13.5q14 0 19.5 -6.5t5.5 -17.5zM435 947q0 -22 -10.5 -40.5t-27 -32t-37 -21t-40.5 -7.5q-27 0 -53.5 7
t-50.5 20.5t-43.5 34.5t-32.5 50q9 13 22.5 26.5t33.5 24t47 17t64 6.5q22 0 44.5 -6.5t41 -18t30.5 -27t12 -33.5z" />
    <glyph glyph-name="D" unicode="D" horiz-adv-x="1352" 
d="M1672 981l-3 8q-77 -14 -132 -34t-96 -43.5t-72.5 -50.5t-59.5 -54q-59 83 -127.5 141.5t-143.5 95t-153.5 53.5t-155.5 17q-74 0 -150 -15.5t-146.5 -45t-132.5 -72.5t-108 -98.5t-72.5 -122.5t-26.5 -145q0 -69 35.5 -126.5t91 -99t122 -65t128.5 -23.5q40 0 89 8.5
t98.5 27t96.5 47t83 67.5t58 89.5t22 112.5q0 45 -15 81t-42.5 61.5t-65 39t-82.5 13.5q-54 0 -104.5 -18t-93.5 -49t-76.5 -73t-52.5 -90h4q19 41 52.5 80.5t76.5 70t91.5 49t96.5 18.5q43 0 80 -12.5t64 -36t42.5 -57t15.5 -76.5q0 -52 -19.5 -98t-52.5 -84t-76 -67.5
t-91 -50t-97.5 -31.5t-94.5 -11q-33 0 -69 9t-71.5 25.5t-67.5 41t-56.5 56.5t-39 70.5t-14.5 82.5q0 74 23 140t62.5 121t92.5 98.5t113.5 73.5t125 46t127.5 16q92 0 180.5 -25t166 -66.5t139.5 -96t101 -112.5q-93 -89 -153.5 -173.5t-105 -160.5t-81 -141t-81.5 -114
q-22 -24 -54.5 -55.5t-69.5 -61t-74.5 -53.5t-70.5 -33q-34 8 -85 25t-112.5 34t-131 30t-141.5 13q-17 0 -40.5 -1.5t-45.5 -6.5t-37.5 -15.5t-15.5 -28.5q0 -23 20 -39.5t51 -27.5t70 -18t77.5 -11t71.5 -5t54 -1q61 0 126.5 7.5t131.5 27.5q49 -14 95 -19.5t92 -5.5
q88 0 168 21t148 59t122.5 91t93 116t59.5 134.5t21 147.5q0 74 -16.5 133.5t-48.5 117.5q33 37 74.5 71.5t87 62.5t92.5 46.5t91 22.5zM1374 523q0 -75 -22.5 -145.5t-63 -132t-96 -112t-122 -87t-141.5 -56.5t-153 -20q-42 0 -82 5.5t-76 16.5q48 18 86 36.5t69.5 37.5
t59 39.5t54.5 43.5q66 55 119.5 132t102 161t97.5 166t106 148q12 -21 23.5 -47.5t20 -57t13.5 -63.5t5 -65zM574 -8q-64 -18 -125.5 -26t-120.5 -8q-19 0 -51 1t-68 4.5t-73 10t-66.5 16.5t-48.5 24t-19 34q0 15 15 24t35 13.5t41.5 6t33.5 1.5q49 0 101.5 -8t108 -22
t115 -32t122.5 -39z" />
    <glyph glyph-name="E" unicode="E" horiz-adv-x="1875" 
d="M1997 911q0 35 -14 62t-38.5 45t-59 27t-74.5 9q-52 0 -108.5 -16t-103 -50.5t-76.5 -89t-30 -131.5v-17q0 -8 1 -16q-34 0 -73.5 -6.5t-81 -25.5t-84 -52t-81.5 -87q-31 10 -70 35.5t-73.5 66.5t-58 99t-23.5 134q0 62 27 120.5t76 105.5t117.5 78t150.5 38
q-29 0 -69 -8.5t-82 -26t-83.5 -45t-74.5 -66t-53 -88.5t-20 -112q0 -87 25.5 -148t61.5 -100.5t75.5 -61.5t66.5 -32q-45 -72 -64.5 -135.5t-19.5 -118.5q0 -72 26.5 -125.5t64.5 -85.5q-55 -45 -121.5 -78.5t-138.5 -56t-147.5 -33.5t-148.5 -11q-107 0 -208.5 29t-181 85
t-128 139t-48.5 191q0 99 41 182t110 142t159.5 92t189.5 33q66 0 130 -21t114 -60.5t81 -96t31 -127.5q0 -69 -28.5 -125.5t-73.5 -97t-101.5 -62.5t-111.5 -22q-40 0 -84.5 11.5t-82 35t-62 59.5t-24.5 84q0 41 12 71t31.5 51t43 34.5t47 21.5t44.5 11t34 4h-14
q-50 0 -89 -16.5t-66 -43.5t-41 -61.5t-14 -71.5q0 -51 24 -89t62 -63.5t85.5 -38.5t94.5 -13q69 0 130 25.5t106.5 68t72.5 99t27 119.5q0 76 -31.5 136.5t-84 102.5t-121.5 64t-143 22q-107 0 -200.5 -36t-163 -99t-110 -147.5t-40.5 -181.5q0 -74 23.5 -137t64 -114
t95 -90t117.5 -65t130.5 -39.5t134.5 -13.5q99 0 192.5 20t171.5 49.5t135.5 62.5t84.5 59q58 -44 127 -62.5t139 -18.5q75 0 143 16.5t120 48.5t83 80t31 111q0 41 -16 72t-42.5 51.5t-61.5 31t-73 10.5q-40 0 -83.5 -12t-86.5 -41q-53 -36 -87 -68.5t-60 -63.5t-51 -61.5
t-60 -61.5q-24 31 -43.5 80.5t-19.5 113.5q0 51 16 108t54 120q39 -12 79 -17.5t82 -5.5q76 0 152 17.5t145 47.5t128.5 69.5t103 84t68.5 91t25 90.5zM1985 911q0 -41 -24 -85.5t-66.5 -87.5t-100.5 -81.5t-126 -68t-143 -46.5t-152 -17q-38 0 -76 4.5t-76 15.5
q33 49 71 82.5t75.5 54.5t71.5 30.5t59 10.5q10 -33 33.5 -50t45.5 -17q10 0 22 5t12 16q0 7 -5.5 16.5t-17 18.5t-30.5 15.5t-46 6.5q0 80 31.5 136.5t79.5 92.5t104 53t106 17q67 0 109.5 -29.5t42.5 -92.5zM1603 679q-3 -14 -21 -14t-40 14.5t-30 43.5q19 0 35.5 -4
t29 -10.5t19.5 -14.5t7 -15zM1814 247q-5 -61 -37 -105t-81 -72.5t-110.5 -42t-124.5 -13.5q-72 0 -138 21t-109 66q33 31 62.5 65.5t59.5 68t62.5 64.5t70.5 57q39 26 82.5 39t84.5 13q83 0 128 -41.5t50 -119.5z" />
    <glyph glyph-name="F" unicode="F" horiz-adv-x="1900" 
d="M2513 965q0 16 -9 26.5t-22.5 15.5t-29.5 7t-29 2q-25 0 -55 -4.5t-64 -16.5t-70.5 -33.5t-73.5 -56.5q-70 25 -135 67t-127 93.5t-121.5 108.5t-118.5 113q-70 66 -161 128.5t-196 112t-220.5 79.5t-235.5 30q-167 0 -316 -39.5t-261.5 -119.5t-178 -201t-65.5 -285
q0 -107 46.5 -205t130 -173t199.5 -119.5t255 -44.5q65 0 134.5 10t135.5 32t124.5 55.5t103 81t70.5 109t26 138.5q0 71 -28 134t-79.5 110.5t-125.5 75.5t-166 28q-45 0 -90 -14t-87 -40t-79 -64.5t-67 -87.5q28 39 65 73t79 59t87.5 39.5t92.5 14.5q76 0 139 -23.5
t108.5 -65.5t70.5 -100t25 -127q0 -67 -24 -124t-65 -104t-95 -83.5t-113.5 -61t-122 -37.5t-119.5 -13q-71 0 -143.5 16.5t-141 48t-128.5 76.5t-104.5 102.5t-70.5 126t-26 146.5q0 101 31 188t86.5 158t131.5 126t165.5 92t188.5 56.5t201 19.5q215 0 418 -92.5
t380 -270.5q52 -47 104.5 -99.5t112.5 -103t130 -94.5t156 -73q-42 -42 -83 -89t-84.5 -104t-93 -127.5t-107.5 -160.5q-47 -4 -109 -16t-128.5 -32t-130.5 -47.5t-114.5 -62.5t-82 -77t-31.5 -91q0 -32 25.5 -57t72.5 -25q84 0 158.5 24.5t143 74t133 123.5t129.5 172
q20 0 35.5 -3t40.5 -3q11 0 22 1t24 5q-6 -14 -10.5 -26t-9.5 -24.5t-12 -26t-19 -30.5q17 13 29.5 29t23 32.5t19.5 32t20 27.5q35 21 50.5 45.5t15.5 38.5q0 12 -9 12q-11 0 -30.5 -18t-48.5 -64q-14 -11 -32 -14.5t-38 -3.5q-18 0 -32.5 1.5t-29.5 1.5q38 56 73 117.5
t72.5 123.5t80 121.5t95.5 110.5q40 -10 74 -13t65 -3q27 0 62 5t65.5 17t51.5 31.5t21 48.5zM2494 971q0 -21 -18.5 -37.5t-47 -27.5t-62 -16.5t-63.5 -5.5q-23 0 -55 2.5t-61 9.5q42 37 75.5 57.5t61 31t52 13t48.5 2.5q42 0 56 -11t14 -18zM1767 392q-44 -76 -99 -145
t-116.5 -121.5t-128 -83.5t-134.5 -31q-39 0 -57.5 19.5t-18.5 48.5q0 41 31.5 79.5t81.5 72.5t112 63t124 50t116.5 33.5t88.5 14.5z" />
    <glyph glyph-name="G" unicode="G" horiz-adv-x="560" 
d="M1030 886q0 45 -18 76t-47.5 50.5t-67 28.5t-77.5 9q-124 0 -227 -47t-190.5 -127.5t-164 -186.5t-148.5 -224q-60 0 -125 22.5t-118.5 63.5t-88.5 97.5t-35 124.5q0 55 20 103.5t54.5 85.5t81.5 58.5t101 21.5q36 0 72 -11t64.5 -31.5t46 -50.5t17.5 -67q0 -34 -20 -64
q14 18 20 36t6 35q0 35 -16.5 65t-45 52.5t-67.5 35.5t-84 13q-50 0 -99 -23.5t-87.5 -63.5t-62 -92.5t-23.5 -110.5q0 -73 29.5 -132t80.5 -102t119 -69t145 -32q-30 -60 -42 -121.5t-12 -115.5q0 -96 41.5 -145t126.5 -49q57 0 115 27t106 75q-16 -24 -42 -72.5
t-62.5 -111.5t-84 -135.5t-106.5 -144.5t-130 -139t-154.5 -118t-179.5 -81.5t-205 -30.5q-92 0 -176.5 25.5t-157.5 76.5q119 39 216 99.5t165.5 139t106 172t37.5 197.5q0 53 -14 98t-42.5 78t-71.5 51.5t-101 18.5q-61 0 -119.5 -22t-111 -60t-96.5 -89.5t-76 -110.5
t-50 -123t-18 -127q0 -86 30.5 -166t97.5 -141q-62 -12 -124.5 -20t-124.5 -8q-75 0 -147 15t-135 51.5t-116 99t-91 157.5q34 -101 87 -167t119 -105t142 -54.5t154 -15.5q66 0 131 8.5t127 20.5q69 -59 162 -90t197 -31q167 0 294 46t228 126.5t184 190t163 237.5t165 268
t189 282h-62q-27 -37 -54.5 -80t-57.5 -85.5t-63.5 -81.5t-71.5 -69t-82 -48t-96 -18q-62 0 -95 35.5t-33 100.5q0 57 24.5 128.5t66.5 146.5q66 4 129 21.5t121.5 44t112.5 60t102 70.5q17 -14 39 -19t46 -5q58 0 117.5 21.5t108 60t79 91.5t30.5 116zM618 643
q-19 25 -19 61q0 19 6.5 43t19 45t31.5 35.5t44 14.5q13 0 19 -9.5t6 -24.5q0 -35 -27 -77.5t-80 -87.5zM1013 889q0 -53 -25 -103t-67.5 -89t-98.5 -62.5t-118 -23.5q-24 0 -45 5t-34 16q55 50 82 90t27 87q0 19 -7 33t-27 14q-27 0 -49 -16.5t-37 -40.5t-23.5 -51
t-8.5 -49q0 -20 4.5 -38t15.5 -30q-26 -20 -70 -47.5t-102 -54t-126.5 -46.5t-143.5 -25q38 69 79.5 139t88 135t99.5 121t114 98t130.5 66t150.5 24q33 0 67 -10t61.5 -29.5t45 -47.5t17.5 -65zM-403 -11q0 -96 -40 -192t-108.5 -178t-160 -142.5t-194.5 -87.5
q-65 51 -100 132.5t-35 177.5q0 57 16 117t45 116.5t70 106.5t91.5 87.5t109.5 59.5t124 22q43 0 76.5 -19t56.5 -50t35 -70.5t14 -79.5z" />
    <glyph glyph-name="H" unicode="H" horiz-adv-x="1756" 
d="M2198 961q0 23 -12 39t-30.5 25.5t-40.5 14t-41 4.5q-88 0 -161.5 -21.5t-135.5 -58t-115.5 -85t-103 -101.5t-96 -107.5t-95.5 -103.5q-63 -3 -126 -6.5t-129 -8.5q27 41 56 85t56 84t50 72t38 50q63 22 123 65t106 95q23 26 23 37q0 10 -16 10q-35 0 -69.5 -19.5
t-69 -49t-69 -64t-68.5 -63.5q-46 -17 -86.5 -24.5t-75.5 -7.5q-59 0 -98.5 17t-55.5 41q27 19 56.5 42.5t54.5 51t41 57.5t16 62q0 26 -14 40.5t-38 14.5q-33 0 -64 -20t-54.5 -48.5t-38 -60t-14.5 -55.5q0 -46 33 -88q-69 -47 -147.5 -86t-157.5 -74q85 33 163 68.5
t149 87.5q35 -35 82.5 -50t97.5 -15q36 0 70 7t63 18q-69 -71 -123.5 -141t-108.5 -145q-62 -4 -108.5 -8.5t-86.5 -9t-78.5 -9.5t-83.5 -10q-9 32 -36 61t-67 51t-90.5 35t-106.5 13q-43 0 -91 -12t-95 -34t-90 -53.5t-75.5 -70.5t-52 -85t-19.5 -98q0 -89 38 -150
t98.5 -98t135 -53t147.5 -16q85 0 164 22.5t150.5 62t135.5 92t118 112.5t98.5 123.5t77.5 125.5q63 2 122.5 7.5t128.5 7.5q-26 -33 -57 -76.5t-58 -93.5t-45 -106.5t-18 -116.5q0 -83 46.5 -130.5t140.5 -47.5q41 0 86 12t88.5 34t82.5 53t69 69t47.5 82.5t17.5 92.5
t-28.5 77t-80.5 29q-48 0 -88.5 -26.5t-70 -66.5t-46 -87t-16.5 -88q0 -37 10 -57q-2 11 -3 23.5t-1 25.5q0 39 15 85.5t43 86t69 66t92 26.5q41 0 67.5 -22t26.5 -63q0 -46 -18 -88.5t-47.5 -80.5t-68 -69.5t-79.5 -54.5t-82.5 -35.5t-76.5 -12.5q-71 0 -102.5 38.5
t-31.5 100.5q0 89 48.5 192.5t137.5 228.5q67 7 128 21t116 31.5t103 37.5t88 39q50 24 109 58t110 71.5t85 76.5t34 74zM1864 700q-110 -54 -218 -89t-206 -41q82 104 162 189.5t159 147t158 95t159 33.5q19 0 38 -4.5t35 -13t26 -21.5t10 -30q0 -23 -15 -46.5t-40.5 -47.5
t-58.5 -48t-69 -46t-72.5 -41.5t-67.5 -36.5zM1530 1010q-14 -18 -35.5 -37t-48.5 -37.5t-56.5 -35t-57.5 -28.5q18 17 33 36t32.5 38.5t39.5 39.5t54 39q14 8 25 10.5t16 2.5q11 0 11 -6q0 -5 -4.5 -11t-8.5 -11zM1109 1101q0 -24 -14.5 -54.5t-37.5 -60.5t-52.5 -56.5
t-59.5 -42.5q-20 29 -20 73q0 25 11 56t31 58.5t47.5 46t59.5 18.5q35 0 35 -38zM635 470q0 -50 -22.5 -89.5t-57.5 -66.5t-77.5 -41.5t-84.5 -14.5q-20 0 -41 6t-38 16.5t-28 24t-11 29.5q0 34 19 57.5t50 39.5t70.5 26t79 16t76 10.5t62.5 10.5q3 -11 3 -24zM1014 534
q-39 -62 -80.5 -125t-88.5 -121t-100.5 -108.5t-114.5 -88t-131.5 -59t-151.5 -21.5q-67 0 -136.5 15.5t-125.5 51t-92 93.5t-36 143q0 76 39 139t99.5 108.5t133 71t140.5 25.5q98 0 165.5 -40t94.5 -113q-23 -4 -59 -8t-77 -11t-82.5 -18.5t-75 -29t-54.5 -43.5t-21 -61
q0 -21 13 -37t33.5 -26.5t45.5 -16t49 -5.5q48 0 96.5 18t87.5 48t63.5 69.5t24.5 82.5q0 8 -1 15.5t-3 15.5q76 11 158.5 21t186.5 15z" />
    <glyph glyph-name="I" unicode="I" horiz-adv-x="1400" 
d="M2041 1200q-5 0 -12 -1l-14 -2q-21 -1 -78 -17.5t-131 -48t-154 -78t-147 -108t-110.5 -138t-43.5 -167.5q0 -27 7.5 -53t23.5 -46.5t40.5 -33.5t57.5 -13q-53 -94 -110.5 -183.5t-119.5 -187.5q-61 -98 -135.5 -178t-152.5 -137t-154.5 -88.5t-142.5 -31.5
q-67 0 -118 36.5t-75 115.5q40 18 70.5 32.5t56.5 31t49 36.5t48 47q11 -6 23.5 -7.5t25.5 -1.5q48 0 101 29.5t104 78.5t97.5 112.5t81.5 131.5t56 135t21 123q0 113 -54 176.5t-145 63.5q-93 0 -173.5 -41t-147 -109t-118.5 -155t-87.5 -179t-54 -181.5t-18.5 -161.5
q0 -92 24 -161q-26 -11 -52 -16.5t-50 -5.5q-47 0 -87 18.5t-69 51t-46 77.5t-17 99q0 50 16 105t51 114q-39 -51 -58.5 -110t-19.5 -117q0 -51 14.5 -97t43 -81t70 -56t95.5 -21t120 24q31 -81 89 -117.5t133 -36.5q72 0 154.5 31.5t165 88t159.5 134t139 169.5
q32 47 65 98t64.5 102.5t61.5 102t56 97.5q46 6 83 28t63.5 56t43 78t21.5 93q-9 -45 -25 -84t-40.5 -70t-58.5 -52t-79 -31q64 121 121.5 226.5t116 192.5t123 154.5t142.5 114.5zM2003 1185q-87 -47 -158 -121t-131.5 -164t-115.5 -191t-111 -200q-47 0 -72.5 30t-25.5 75
q0 67 23.5 127.5t63 113t90 97.5t105 81.5t108.5 65t99.5 47.5t78.5 29t46 10zM1189 594q0 -67 -21.5 -137.5t-57.5 -137.5t-82 -126.5t-95.5 -104t-98.5 -70.5t-90 -25q-19 0 -32 10q56 62 104 122.5t82.5 120.5t54 119.5t19.5 120.5q0 35 -17 52t-43 17q-44 0 -81 -24
t-67 -62t-53 -85t-39 -94t-24 -88.5t-8 -67.5q0 -42 10 -76.5t30 -57.5q-42 -45 -94 -81.5t-121 -60.5q-10 31 -14 64t-4 67q0 93 23 189t63.5 185t95 167t116.5 136t128.5 91.5t132.5 33.5q39 0 72.5 -12.5t58 -37.5t38.5 -61.5t14 -85.5zM950 485q-2 -62 -20.5 -119.5
t-51 -113.5t-78.5 -113t-102 -118q-12 15 -17.5 37.5t-5.5 50.5q0 23 7.5 63t22 85.5t35.5 92.5t48 85t59.5 62t69.5 24q13 0 22.5 -6t10.5 -30z" />
    <glyph glyph-name="J" unicode="J" horiz-adv-x="1950" 
d="M2527 1018q-2 9 -13 13.5t-28 4.5q-14 0 -30 -2.5t-31.5 -8t-30 -13t-24.5 -16.5q-51 -20 -107 -36.5t-110.5 -34t-104 -39t-87 -51.5t-60 -72t-22.5 -100q0 -39 16 -72t38.5 -57.5t47 -39.5t40.5 -18q-23 -38 -54 -83.5t-68 -93t-78 -94.5t-84 -88.5t-86 -74.5t-84 -53
q-3 57 -41.5 108.5t-107.5 83.5q87 42 137 94.5t50 120.5q0 64 -32.5 118t-85.5 92.5t-121.5 60t-140.5 21.5q-47 0 -99.5 -13t-104 -37t-99 -59t-84 -78.5t-58 -95.5t-21.5 -111q0 -29 4.5 -52t10.5 -39q-109 -141 -109 -334q-11 -1 -20 -1h-18q-67 0 -135 11.5t-132 35
t-119.5 59.5t-96.5 84.5t-65 110.5t-24 138q0 60 23 112.5t62 92.5t89.5 63t105.5 23q51 0 101 -16t90 -45.5t64.5 -71t24.5 -92.5q0 -37 -14.5 -70.5t-39.5 -59t-59 -41t-74 -15.5q-20 0 -42 4.5t-45 15.5q57 -22 105 -22q44 0 78 16.5t56.5 43.5t34 61.5t11.5 69.5
q0 54 -27 96.5t-69 72.5t-93 46t-100 16q-61 0 -115 -24t-95 -65.5t-65 -96.5t-24 -118q0 -79 25 -142.5t67.5 -113.5t99.5 -86.5t121.5 -60.5t133.5 -35.5t135 -11.5h24q13 0 25 1q9 -80 48.5 -139.5t97 -99.5t126.5 -60t137 -20q92 0 180 28.5t157 83.5t111.5 136
t42.5 187q76 41 151 102.5t141 130t120 137.5t88 125q6 -1 11.5 -1.5t11.5 -0.5q32 0 58.5 11.5t45.5 30.5t29.5 44t10.5 51q0 23 -9.5 46.5t-30.5 43.5q26 48 49 93t44.5 83.5t43.5 69t45 49.5q24 0 50.5 2.5t48 7t36 10.5t14.5 13zM2360 985q-23 -12 -49.5 -44t-53 -71.5
t-51 -81t-43.5 -72.5q-22 8 -44 8q-33 0 -60.5 -13.5t-33.5 -30.5q11 16 28.5 21.5t36.5 5.5q20 0 37.5 -4t24.5 -9q-18 -29 -32.5 -54t-28 -48.5t-27 -46.5t-28.5 -47q-24 6 -49.5 22t-46.5 38.5t-34 51.5t-13 61q0 55 26.5 96t68 71t94 51.5t104 38t98 29.5t76.5 28z
M2217 600q0 -21 -9 -41t-26.5 -36t-42.5 -26t-56 -10q30 52 53.5 98t48.5 84q17 -14 24.5 -32t7.5 -37zM1392 181q-16 -5 -36 -9.5t-35 -4.5q-23 0 -23 14q0 8 9 12t22 4q17 0 35.5 -5t27.5 -11zM1566 414q0 -38 -12.5 -73t-34 -64.5t-50.5 -52t-62 -35.5q-16 7 -37 12.5
t-41 5.5q-18 0 -31 -6t-15 -20q0 -22 41 -22q16 0 37 4.5t46 14.5q71 -36 106 -88t39 -109q-63 -31 -139.5 -48t-160.5 -17q-57 0 -115.5 11.5t-118.5 39.5q42 26 74.5 59.5t56.5 68.5t39 70t22 64q2 11 3.5 21t1.5 20q0 48 -28.5 74t-81.5 26q-44 0 -85.5 -12.5
t-81.5 -33.5t-77 -48.5t-72 -57.5q-6 17 -10 38t-4 46q0 54 21 103t56 90t80.5 73.5t96 55.5t102 35t97.5 12q66 0 126.5 -17t107 -50t74.5 -81t30 -109zM1179 276q0 -19 -5 -44q-7 -22 -19.5 -53t-33.5 -66t-50.5 -71.5t-70.5 -67.5q-71 33 -123 86t-85 143q40 34 77 63
t73.5 50t74.5 33t81 12q45 0 63 -24.5t18 -60.5zM1552 -37q0 -92 -38 -167t-101 -129t-144.5 -83.5t-169.5 -29.5q-72 0 -140.5 16t-125 51.5t-96.5 92.5t-54 140q57 4 105 14.5t88 24.5t71.5 30t55.5 33q64 -30 129.5 -43.5t131.5 -13.5q78 0 151 17t137 47zM985 -37
q-60 -38 -132 -62t-173 -32q-1 11 -1.5 19.5t-0.5 18.5q0 79 27.5 150.5t72.5 131.5q12 -42 35.5 -77.5t52.5 -64t60.5 -49.5t58.5 -35z" />
    <glyph glyph-name="K" unicode="K" horiz-adv-x="1850" 
d="M2329 1094q0 32 -30 50.5t-85 18.5q-70 0 -133.5 -33.5t-120 -83.5t-105 -108.5t-87.5 -108.5l-12 -15q-42 -5 -77.5 -9.5t-68.5 -4.5q0 27 -10.5 47.5t-21.5 28.5q16 24 29.5 44t26.5 37.5t26.5 33.5t29.5 34q33 5 57.5 17.5t41.5 29.5q16 13 16 24q0 6 -5 6
q-4 0 -11 -4q-31 -11 -50.5 -25.5t-42.5 -34.5l-6 -6q-85 -2 -148 -15.5t-108 -35t-74.5 -48.5t-46.5 -55t-23.5 -55t-6.5 -48q-53 -12 -104.5 -37.5t-92 -63.5t-66 -87.5t-25.5 -109.5q0 -36 13.5 -69.5t37 -63t56 -52.5t70.5 -36q-45 -72 -120.5 -138.5t-167.5 -117.5
t-192.5 -81.5t-193.5 -30.5q-102 0 -189 31.5t-150.5 90.5t-99 143t-35.5 189q0 75 20 150t59 142t97 122.5t134 90.5q-6 -23 -6 -48q0 -47 11.5 -85t33 -65t53 -42t70.5 -15q35 0 64.5 13.5t51 35.5t33.5 50.5t12 58.5q0 38 -15 64.5t-39.5 43.5t-57 24.5t-66.5 7.5
q-26 0 -58 -5.5t-69 -19.5q13 61 47 104.5t79 71t96 40t99 12.5q41 0 75.5 -8t58.5 -24q-26 20 -63 30t-81 10q-49 0 -100.5 -13.5t-97 -43t-79.5 -75t-48 -108.5q-87 -38 -150 -94t-103.5 -122t-59.5 -138.5t-19 -145.5q0 -111 36.5 -200.5t100.5 -153t152 -98t192 -34.5
q110 0 214 28t199 77t180 115.5t156 144.5q14 -2 28 -3.5t29 -1.5q46 0 89.5 8t71.5 18q-19 -48 -19 -94t14.5 -78t38 -52.5t54 -30t63.5 -9.5q48 0 96 22.5t86.5 58.5t63 81.5t24.5 90.5q0 68 -65 68q-32 0 -62 -11.5t-53.5 -32t-39 -49.5t-19.5 -65q18 66 63.5 107.5
t105.5 41.5q27 0 44 -13t17 -45q0 -42 -23 -85.5t-60.5 -78.5t-84.5 -57t-95 -22q-57 0 -89.5 28t-32.5 89q0 38 11 79.5t28 75.5q94 20 188.5 70.5t180 121.5t156 159t115.5 183q-49 -84 -113 -164.5t-142.5 -149.5t-173 -122.5t-204.5 -83.5q26 44 38 79t12 64
q0 25 -8.5 46t-23.5 40q22 10 55 41t69.5 71.5t72.5 86t65 85.5q44 5 99.5 17.5t113.5 31.5t113.5 44t99 55.5t70 65t26.5 73.5zM2316 1089q0 -37 -26 -69t-68 -59.5t-96 -49.5t-109 -39.5t-107.5 -30t-92.5 -20.5q24 28 51.5 63.5t57.5 73t63 73t69 63t75 45t81 17.5
q18 0 36 -4t33 -12.5t24 -21t9 -29.5zM1592 800q-11 0 -23 0.5t-35 0.5q11 19 19.5 36t16.5 28q7 -6 11.5 -14.5t6.5 -18t3 -18.5t1 -14zM1669 1021q-33 -35 -65.5 -72t-51.5 -62q-12 5 -27 5q-18 0 -37 -8.5t-27 -29.5q6 14 21.5 23t34.5 9q14 0 28 -6q-14 -17 -29 -37.5
t-29 -42.5q-20 -4 -46 -6t-52.5 -3.5t-50.5 -4t-40 -7.5q0 32 19.5 74t63.5 79.5t114.5 63t173.5 25.5zM1596 785q0 -18 -10.5 -40t-29.5 -42.5t-46 -36t-60 -19.5q20 35 39 68.5t36 66.5q12 2 32 2.5t39 0.5zM1476 781q-20 -32 -40.5 -67t-39.5 -67q-23 3 -41.5 16.5
t-31 31.5t-19 36.5t-6.5 32.5q24 7 45.5 9.5t43.5 3.5t43.5 1.5t45.5 2.5zM1745 800q-21 -29 -46.5 -69.5t-53 -80.5t-55.5 -73.5t-52 -46.5q-11 11 -33 24.5t-48 13.5q-18 0 -30.5 -8t-12.5 -22q0 -18 16 -28t31 -10q12 0 30.5 2t37.5 11q9 -13 9 -33q0 -19 -7 -42
t-18 -48.5t-24.5 -53.5t-27.5 -56q-26 -9 -67.5 -20.5t-91.5 -11.5q-29 0 -59 6q37 48 64.5 97.5t50 98t42 94t40.5 85.5q28 0 58.5 13.5t55 36t40.5 50t16 56.5q32 0 67 4.5t68 10.5zM1523 521q-19 -9 -34.5 -10.5t-28.5 -1.5q-12 0 -23 6.5t-11 21.5q0 5 6 12t25 7
q21 0 39.5 -13t26.5 -22zM1389 632q-25 -41 -46.5 -85.5t-44.5 -90.5t-50.5 -93.5t-64.5 -93.5q-33 10 -63.5 29t-54 45.5t-38 59t-14.5 68.5q0 58 26.5 108t66.5 88t87.5 62t89.5 31q1 -14 8.5 -34t20.5 -39.5t32 -35t45 -19.5zM644 748q0 -29 -11 -55t-30.5 -46t-47 -32
t-61.5 -12q-70 0 -110.5 51t-40.5 139q0 27 6 57q77 26 132 26q30 0 59 -7.5t52.5 -23t37.5 -39.5t14 -58z" />
    <glyph glyph-name="L" unicode="L" horiz-adv-x="651" 
d="M1501 915q0 41 -14 71.5t-39.5 51t-60.5 30.5t-77 10q-114 0 -204.5 -39.5t-169 -110.5t-150.5 -169.5t-149 -217.5q-23 -2 -45 -3t-44 -1q-119 0 -225.5 28t-187 84.5t-127.5 140.5t-47 195q0 97 39 190t106.5 166t158 117.5t193.5 44.5q53 0 109 -15t102 -46
t75.5 -78.5t29.5 -111.5q0 -47 -16 -92t-44.5 -85t-67.5 -73.5t-86.5 -58t-100.5 -38t-109 -13.5q-26 0 -52.5 3t-53.5 10q32 -9 62.5 -13t59.5 -4q82 0 159 29.5t135.5 79.5t94 116t35.5 138q0 67 -28 117t-75 84t-107.5 51t-125.5 17q-59 0 -121.5 -16t-122 -47
t-113 -76.5t-93.5 -104.5t-63.5 -130t-23.5 -154q0 -76 24.5 -140.5t68 -117.5t103 -93t128.5 -67.5t145.5 -41.5t154.5 -14q22 0 44 1.5t45 3.5q-26 -50 -50 -100.5t-49.5 -99t-54.5 -93t-66 -82.5q-26 7 -56.5 9.5t-61.5 2.5q-6 0 -29.5 -0.5t-56 -4t-69 -10.5t-67 -19.5
t-50.5 -32t-20 -47.5q0 -17 9 -27t22 -15t28 -6.5t28 -1.5q48 0 96 10.5t91 28t80.5 39.5t64.5 46q11 -2 25.5 -9.5t27 -18t21.5 -22.5t9 -23q-30 -17 -42 -28.5t-12 -22.5q7 -14 25 -14q17 0 34 15.5t17 42.5l178 130l4 19q-18 -14 -40.5 -31t-47 -35t-49.5 -36t-48 -33
q0 10 -8.5 23t-21 25t-27.5 22t-27 14q33 30 69 77t71 101t65.5 110t52.5 104q46 8 87 20.5t75.5 26.5t62.5 28.5t48 26.5q3 -16 13.5 -27t27 -18t37 -10.5t43.5 -3.5q76 0 150 29t132 77t94 109.5t36 126.5zM1482 918q0 -68 -35 -128.5t-91 -106t-126 -72.5t-140 -27
q-40 0 -67.5 13.5t-32.5 45.5q36 21 66 45t52.5 47t35 43t12.5 33q0 19 -27 19q-34 0 -64 -16t-52.5 -41t-36 -56t-13.5 -60q0 -9 1 -14q-57 -32 -121.5 -55t-136.5 -39q17 51 48.5 109.5t75 115.5t97 109.5t114.5 92.5t128.5 64t138.5 24q78 0 126 -36t48 -110zM990 658
q1 31 12.5 60.5t30.5 51.5t44 35.5t52 13.5q12 0 12 -10q0 -11 -14 -30.5t-36 -41.5t-49 -43.5t-52 -35.5zM391 130q-24 -21 -56 -42.5t-70.5 -39t-83.5 -28t-94 -10.5q-7 0 -17 0.5t-19.5 3t-16.5 8t-7 14.5q0 23 19.5 40t49 28t64.5 17.5t65.5 9.5t52 4t24.5 1q26 0 48 -1
t41 -5z" />
    <glyph glyph-name="M" unicode="M" horiz-adv-x="1940" 
d="M2725 1053q0 21 -11.5 36.5t-29.5 26t-41.5 16t-47.5 5.5q-75 0 -150.5 -25.5t-150 -67.5t-145.5 -96t-135 -112t-120.5 -114.5t-101.5 -103.5l-109 -15q29 34 73.5 80t95 95t102 95.5t93.5 82.5q-33 -26 -84 -65.5t-107 -86.5t-110 -98.5t-92 -102.5l-131 -14l255 320
q23 28 33 46t10 27q0 10 -11 10q-13 0 -37.5 -14.5t-56.5 -39.5q-65 -50 -117.5 -95.5t-99 -90t-91.5 -88.5t-96 -90q-115 -8 -242.5 -24.5t-259.5 -51.5q1 8 1.5 15t0.5 14q0 59 -22.5 105t-63 78t-97.5 49t-126 17q-54 0 -112.5 -13.5t-115 -39.5t-108 -63.5t-90.5 -85.5
t-62 -106t-23 -125q0 -69 21.5 -122t47.5 -83q-69 -56 -121.5 -120t-88 -132.5t-54 -139.5t-18.5 -141q0 -112 43 -201.5t116.5 -152.5t171.5 -96.5t207 -33.5q67 0 148.5 17.5t164.5 50.5t161.5 82t139 112.5t97.5 140.5t37 167q0 53 -20.5 93.5t-54.5 67.5t-78.5 40.5
t-93.5 13.5q-71 0 -132.5 -29t-111 -75.5t-85 -105t-53.5 -118.5q22 54 57.5 110.5t83.5 102.5t107.5 75.5t130.5 29.5q43 0 84 -10t72 -31.5t50 -55.5t19 -81q0 -94 -38.5 -173t-100 -143.5t-139 -113.5t-156 -81.5t-150.5 -49.5t-123 -17q-127 0 -226 35.5t-166.5 99
t-102.5 151.5t-35 193q0 67 16.5 134.5t50 132t84 124.5t118.5 113q64 -69 142.5 -98.5t166.5 -29.5q86 0 176 25.5t179 68.5t174.5 99.5t161.5 118.5t140 125t111 120l135 15q-55 -60 -108 -125t-99.5 -126t-83 -112t-58.5 -84q-20 -29 -29.5 -55.5t-9.5 -46.5q0 -18 8 -29
t24 -11q25 0 70 30.5t108 107.5l389 473l111 11q-38 -46 -79 -108.5t-74.5 -129.5t-55.5 -131.5t-22 -113.5q0 -35 13 -61.5t35 -44t51 -26.5t61 -9q55 0 98 19t78.5 51.5t65.5 75t59 89.5q-27 -43 -59.5 -82t-68.5 -68.5t-75.5 -47t-80.5 -17.5q-22 0 -46 6.5t-44 19.5
t-33 33t-13 47q0 44 24.5 109t62.5 136.5t84 140.5t89 122q86 14 184 34.5t195.5 48.5t187 64t158 81t109.5 98.5t41 116.5zM2712 1051q0 -49 -33.5 -94.5t-92.5 -86t-139.5 -76.5t-175 -67t-199 -56.5t-211.5 -45.5q31 45 80 100t110 110.5t130 108t140 93t141 65t133 24.5
q22 0 43 -5t37.5 -14.5t26.5 -23.5t10 -32zM1802 972q0 -5 -9 -19t-30 -37l-291 -331l-127 -11q45 45 84 85.5t79.5 81t87.5 83.5t109 92q29 24 56 42t37 18q4 0 4 -4zM1643 589l-374 -469q-59 -74 -100 -102.5t-57 -28.5q-11 0 -11 13q0 28 51 96l357 476zM1294 552
q-43 -50 -105 -109.5t-136.5 -119.5t-157.5 -116t-167.5 -99.5t-166.5 -70t-154 -26.5q-88 0 -164.5 31.5t-141.5 102.5q58 44 117 83.5t109 61.5q26 -42 63.5 -60t79.5 -18q52 0 107 23.5t102.5 61.5t82 85t45.5 94q23 7 60 15.5t80.5 16.5t91.5 15.5t94.5 13.5t88 10
t72.5 5zM789 472q-16 -54 -51 -98.5t-79.5 -76t-94 -49t-94.5 -17.5q-42 0 -75 16t-50 51q102 57 217 100.5t227 73.5zM797 538q0 -10 -1.5 -20.5t-3.5 -23.5q-59 -17 -112.5 -35t-107.5 -39t-111.5 -47t-122.5 -57q-7 15 -7 34q0 20 13 44t45 53q-19 -6 -33.5 -18t-24 -27
t-14 -31t-4.5 -31q0 -17 7 -31q-22 -10 -50.5 -26t-59.5 -35.5t-62 -42t-58 -45.5q-24 29 -45.5 78.5t-21.5 114.5q0 63 21 118t56.5 100.5t83 81.5t100 61t107 38t105.5 13q61 0 115 -15t95 -44.5t65.5 -71.5t25.5 -96z" />
    <glyph glyph-name="N" unicode="N" horiz-adv-x="2375" 
d="M5805 905q0 93 -40.5 182t-120.5 159t-198 113t-273 43q-65 0 -135 -8.5t-148 -26.5q-53 81 -120.5 138t-145.5 92t-164.5 51t-178.5 16q-88 0 -179 -13t-182 -36t-179.5 -55t-170.5 -70q-248 -114 -451 -252.5t-368 -301.5t-296.5 -350.5t-236.5 -400.5q0 123 1.5 243
t10 228t27 198t52.5 153q-15 -23 -28 -39t-24.5 -28.5t-22.5 -21.5t-24 -17q-44 -28 -84 -40t-75 -12q-58 0 -107 28.5t-91.5 74t-79.5 103.5t-72.5 117.5t-70 114t-70.5 94.5q-75 82 -167 147t-193 110.5t-207 70t-209 24.5q-90 0 -174 -24t-148.5 -72t-103 -121
t-38.5 -171q0 -47 10 -96q-86 -24 -167 -75.5t-143.5 -123.5t-100 -161.5t-37.5 -188.5q0 -131 44.5 -241t119.5 -198.5t174.5 -155.5t209.5 -111.5t224.5 -67t219.5 -22.5q148 0 284.5 31.5t260.5 89t235.5 138.5t210 179.5t182.5 212t153 236.5q-14 -43 -21.5 -104
t-12 -132.5t-6.5 -148.5t-4 -151t-5.5 -141t-9.5 -118q106 234 250 449.5t323.5 403.5t395 344t464.5 272q72 33 156 64t175.5 54.5t186.5 37.5t189 14q84 0 164.5 -14t154.5 -46.5t139.5 -85t118.5 -129.5q-39 -9 -102 -34.5t-134 -65.5t-143.5 -93.5t-130.5 -118.5
t-94.5 -139.5t-36.5 -156.5q0 -52 16 -99t47.5 -83t79 -57.5t109.5 -21.5q70 0 135.5 21t123 58.5t104.5 89t81 113t53 130t19 140.5t-19 148t-61 154q74 21 142.5 30.5t132.5 9.5q74 0 148 -14.5t142 -42.5t126.5 -69t102 -94t68 -117.5t24.5 -139.5q0 -52 -14 -103.5
t-43.5 -100t-75.5 -93t-109 -81.5l5 -5q60 34 107 77.5t79 92.5t48.5 102t16.5 108zM4947 1061q-6 -114 -44.5 -214t-102.5 -175t-150 -118t-186 -43q-48 0 -89 15t-71 44.5t-46.5 73t-16.5 99.5q0 76 32 145t84.5 129.5t119.5 112.5t137 92.5t136.5 70t118.5 45.5
q42 -69 60 -138.5t18 -138.5zM2254 920q-60 -117 -142 -234.5t-182.5 -226.5t-218 -204t-249 -165t-275 -110.5t-295.5 -40.5q-118 0 -236.5 23t-227 67.5t-202.5 110t-163 150t-108.5 187.5t-39.5 222q0 101 34.5 187t92.5 153t135 114t161 70q19 -74 58 -137.5
t91.5 -117.5t115.5 -97t129.5 -75.5t134 -53.5t129.5 -30q-63 15 -129.5 41.5t-131 61.5t-124.5 79.5t-108.5 97t-83 113t-49.5 126.5q25 8 59 11.5t75 3.5q72 0 147.5 -15t147 -44t135 -72.5t111 -100.5t75 -127t27.5 -153q0 -89 -35.5 -159t-96.5 -119t-143 -75t-175 -26
q-74 0 -143 22.5t-129 65t-108.5 103t-80.5 137.5q27 -78 74 -141.5t108.5 -108.5t134 -70t151.5 -25q92 0 176.5 26t149.5 76t104 122.5t39 165.5q0 90 -26 166t-72.5 136.5t-109.5 106t-137.5 76t-157 46t-167.5 15.5q-37 0 -72 -3t-68 -11q-5 26 -8 50t-3 48
q0 85 32.5 152t90.5 112.5t137.5 69.5t172.5 24q74 0 154.5 -16t164 -48.5t168.5 -82t168 -115.5q66 -53 114.5 -119.5t89.5 -135.5t80 -135t86 -117.5t108 -83t145 -31.5q48 0 96.5 20.5t94.5 67.5z" />
    <glyph glyph-name="O" unicode="O" horiz-adv-x="1350" 
d="M2101 1247q0 85 -30.5 154t-85.5 118t-132 75.5t-170 26.5q-37 0 -79.5 -9.5t-85 -28t-82 -45.5t-69.5 -61.5t-48 -77.5t-18 -92q0 -42 13.5 -82.5t40.5 -71.5t66.5 -50t91.5 -19q55 0 123 25q-27 -10 -51.5 -14t-47.5 -4q-49 0 -87 18.5t-64.5 49.5t-40 70t-13.5 81
q0 71 35 125.5t90 91.5t121 56t129 19q73 0 141 -25.5t120.5 -71t83.5 -108t31 -136.5q0 -59 -19.5 -115.5t-53.5 -108t-81 -95t-102 -75t-115.5 -49.5t-122.5 -18q2 15 3.5 29.5t1.5 28.5q0 44 -11.5 81t-33 63.5t-52 41t-68.5 14.5q-64 0 -142 -44q-61 0 -139.5 -22.5
t-167.5 -73t-184 -132.5t-189 -201q-56 -21 -123 -55.5t-134.5 -79.5t-130.5 -99t-112 -116t-78.5 -129.5t-29.5 -138.5q0 -105 46.5 -189.5t122 -143.5t170.5 -91t192 -32q64 0 132.5 14t134.5 40.5t124.5 66t103 89.5t70.5 110.5t26 130.5q0 39 -11 76.5t-34 70.5
q39 34 83.5 71.5t91 81t93.5 94.5t90.5 114.5t82 140t68.5 169.5q118 0 213.5 42t162.5 109t103.5 150.5t36.5 165.5zM1336 961q0 -20 -14.5 -46.5t-52.5 -56.5q-26 -21 -57 -41.5t-70.5 -41.5t-89.5 -43t-114 -45q99 123 186.5 199t158.5 114q7 3 15 3q15 0 26.5 -11
t11.5 -31zM1563 893q0 -40 -14 -93q-47 2 -75.5 14.5t-55.5 39.5q0 27 -8.5 40.5t-16.5 13.5q-9 0 -9 -15q0 -8 4 -21.5t15 -31.5q-7 -45 -26.5 -100.5t-50 -112.5t-71.5 -111.5t-92.5 -97t-112.5 -68.5t-130 -26q-54 0 -77 27.5t-23 69.5q0 27 7.5 58t21 62.5t32 62
t39.5 57.5q52 18 96.5 35t87.5 38t85.5 47t90.5 62q36 27 53 58.5t17 57.5q0 19 -10 33.5t-31 21.5q65 31 120 31q62 0 98 -40t36 -112zM1250 1000q-49 -26 -94.5 -57.5t-89.5 -70.5t-88.5 -87.5t-90.5 -108.5l-200 -66q67 94 146 167t156 122.5t146 75t115 25.5zM1545 785
q-23 -71 -69.5 -155.5t-110.5 -171.5t-142 -172t-165 -156q-21 22 -53 44t-73 39.5t-89.5 28t-102.5 10.5q-55 0 -113 -13t-118 -43q4 50 18 102.5t36 103.5t51 99.5t63 90.5l195 58q-43 -55 -63.5 -108.5t-20.5 -98.5q0 -60 34 -97t102 -37t128 23t111 63t93 93t74 112
t53 121.5t31 121.5q33 -30 63 -44t68 -14zM1040 116q-68 -53 -147 -77t-152 -24q-48 0 -89.5 10t-72.5 29t-49 46.5t-18 62.5q48 30 104 43t114 13q50 0 98 -8.5t89.5 -22.5t73.5 -32.5t49 -39.5zM1096 -27q0 -74 -28 -136t-74 -111.5t-105.5 -86.5t-123 -62t-126.5 -37.5
t-116 -12.5q-99 0 -189.5 31t-159.5 88t-110.5 138t-41.5 181q0 56 24.5 116t66.5 118t98 113t119 103t130.5 86t131.5 62q-73 -109 -106 -199t-33 -174v-14q0 -6 1 -13q-39 -28 -66.5 -74.5t-27.5 -95.5q0 -40 21 -73q-6 14 -10 31t-4 35q0 37 20 77t74 75
q9 -32 33.5 -58.5t60.5 -45t81 -28.5t96 -10q75 0 158 24t164 78q42 -54 42 -125z" />
    <glyph glyph-name="P" unicode="P" horiz-adv-x="1179" 
d="M1632 1176q-150 0 -277.5 -60t-225.5 -161t-164 -234.5t-93 -280.5q-27 -14 -53 -33.5t-46 -44.5t-32.5 -55.5t-12.5 -65.5q0 -38 15 -78t53 -73q-62 -36 -145 -57t-175 -21q-77 0 -159 20.5t-150 62t-111.5 105t-43.5 149.5q0 50 16.5 97t45 88t67 75t82.5 58t92 37.5
t95 13.5q51 0 100.5 -14t88.5 -42.5t62.5 -71.5t23.5 -101q0 -45 -19.5 -86.5t-52 -73.5t-75 -54t-88.5 -28q-80 0 -118.5 34t-38.5 83q0 35 19.5 73t61.5 72q-47 -35 -68 -74t-21 -74q0 -54 44 -91.5t125 -37.5q50 6 96.5 29t82 58t56.5 80t21 97q0 61 -26 106.5
t-67.5 75.5t-93.5 45t-104 15q-75 0 -150 -31t-135.5 -84t-98 -122.5t-37.5 -147.5q0 -66 22 -117.5t58.5 -91.5t85 -68t102 -46t107.5 -26t103 -8q98 0 183.5 24t154.5 60q8 -4 21.5 -7t29.5 -3q18 0 36.5 6t32.5 22q-15 -11 -32 -16t-32 -5q-23 0 -41 10q22 8 47 24t47 30
q14 -27 38.5 -40t53.5 -13q26 0 52 10.5t47 31t34 51t13 69.5q0 46 -20 99q21 23 47.5 56.5t54.5 72.5t54.5 80.5t47.5 81.5q44 -26 89.5 -37t91.5 -11q77 0 152 27.5t134 73t95.5 104t36.5 120.5q0 57 -16 98.5t-41.5 70t-59 46t-68 27.5t-68 13.5t-59.5 3.5zM1563 1040
q-79 -63 -142 -152t-112 -201q-28 35 -28 79q0 39 22 79.5t60 77t89.5 67t110.5 50.5zM1900 917q0 -60 -32 -116.5t-84.5 -100.5t-121 -70.5t-141.5 -26.5q-42 0 -84.5 12t-84.5 39q11 24 29 60.5t40.5 78t48 84.5t51 79.5t49.5 63t44 34.5l-4 4q-98 -24 -164 -58
t-105.5 -73t-56.5 -80t-17 -78q0 -29 9 -54.5t25 -42.5q-18 -33 -40.5 -71.5t-47 -77.5t-49 -75t-44.5 -63q-5 10 -17.5 22.5t-33 24t-47 19.5t-57.5 8q-17 0 -36 -2.5t-39 -9.5q13 84 47 169.5t86 164.5t119 147.5t146 119.5t168 80.5t185 29.5q54 0 101.5 -13t82 -41.5
t55 -74.5t20.5 -112zM1105 367q-22 -30 -40 -53.5t-38 -45t-43.5 -43t-56.5 -47.5q-21 36 -31.5 85.5t-10.5 100.5q0 17 1 33.5t4 31.5q40 12 74 12q32 0 56.5 -8.5t42.5 -20t28.5 -24t13.5 -21.5zM1144 249q0 -33 -11 -59.5t-29 -46t-40.5 -30t-45.5 -10.5t-44.5 11.5
t-35.5 37.5q24 18 52 41t54.5 47t48.5 47.5t34 42.5q17 -41 17 -81zM909 163q-28 -19 -49.5 -33.5t-49.5 -31.5q-12 9 -24 22.5t-22 31.5t-16 39.5t-6 45.5q0 32 13.5 63t33 56.5t42 42.5t41.5 22q-2 -17 -3 -33t-1 -33q0 -51 10 -99t31 -93z" />
    <glyph glyph-name="R" unicode="R" horiz-adv-x="1805" 
d="M2337 814q0 58 -25.5 106.5t-69 83t-102.5 53.5t-125 19q-37 0 -76 -7t-81 -22q-30 42 -74.5 82.5t-106 73t-141.5 52.5t-181 20q-87 0 -180.5 -22.5t-184 -64.5t-171.5 -100.5t-142 -131.5t-97.5 -157.5t-36.5 -177.5q0 -58 19.5 -101t54.5 -72t82 -43.5t103 -14.5
q36 0 76 8.5t82 30.5q19 -52 52 -85t82 -61q-69 -88 -152 -145.5t-179 -79.5q-32 12 -86.5 35.5t-122 47t-142.5 41.5t-148 18q-27 0 -62 -5t-66 -16t-52.5 -27.5t-21.5 -38.5q0 -28 23.5 -46.5t59.5 -31t80 -19.5t85.5 -10.5t75 -4t49.5 -0.5q89 0 168 10.5t149 24.5
q47 -17 101.5 -30t110.5 -13t108.5 16.5t94.5 55.5q-51 -35 -97.5 -48.5t-91.5 -13.5q-49 0 -97.5 13t-99.5 31q52 15 99 32.5t91.5 42t87 58t86.5 81.5q51 -15 108 -15q48 0 107 12q-24 -43 -35 -77.5t-11 -63.5q0 -46 26 -74.5t70 -42.5q-8 -32 -8 -62q0 -38 14 -68
t45 -34q-9 3 -18 8t-16 14.5t-11.5 24t-4.5 36.5q0 31 10 77q36 -6 71 -6q52 0 108.5 18t103 49.5t76.5 75.5t30 97q0 33 -20 58t-67 25q-45 0 -84 -16.5t-71.5 -43t-59 -60t-46.5 -67.5t-33 -65.5t-19 -53.5q-50 11 -50 70q0 34 16 81t45 107q113 33 204 95.5t154.5 141.5
t98 167.5t34.5 173.5q0 52 -8 101.5t-39 91.5q40 14 79.5 20.5t77.5 6.5q54 0 108 -17t96.5 -48.5t69 -76.5t26.5 -101q0 -36 -13.5 -73.5t-43 -74t-76.5 -72t-113 -66.5q70 28 119.5 61.5t81 69.5t46 74t14.5 75zM1891 865q0 -69 -24 -137.5t-63.5 -131.5t-89 -118
t-100.5 -96.5t-99 -66.5t-83 -28q14 30 23 54.5t9 45.5q0 32 -24 56q61 22 109.5 56.5t82.5 76.5t52 89t18 95q0 43 -15 84.5t-47 78.5q23 19 49.5 34.5t54 28t55 23t51.5 20.5q20 -27 30.5 -70t10.5 -94zM1840 1043q-36 -14 -63.5 -26t-51.5 -24.5t-46 -26.5t-47 -32
q-34 34 -85.5 52.5t-113.5 18.5q-42 0 -86 -9t-87.5 -28.5t-85.5 -49t-80 -71.5q-20 7 -46 7q-39 0 -83.5 -18t-86 -53t-76 -86.5t-53.5 -118.5q27 70 64.5 120.5t77.5 83t79.5 48t72.5 15.5q26 0 44 -9q-27 -32 -53 -68t-46.5 -76t-33 -84t-12.5 -90q0 -39 10 -78
q-38 -21 -73.5 -30.5t-70.5 -9.5q-51 0 -96 14t-78.5 41.5t-52.5 69t-19 96.5q0 90 35.5 172t95 152.5t138.5 128t166.5 98t178 62.5t172.5 22q79 0 153 -14.5t138 -42t115.5 -67t85.5 -89.5zM1676 800q0 -52 -23 -106.5t-58.5 -103t-79 -86t-83.5 -54.5q-16 10 -35.5 18
t-42.5 8q-7 0 -18.5 -1.5t-22.5 -5.5t-19 -10t-8 -15q0 -8 7 -13t17 -7.5t19.5 -3.5t15.5 -1q22 0 41.5 4.5t34.5 8.5q4 -8 4 -21q0 -15 -6 -32.5t-15 -36t-19 -36.5t-18 -34q-26 -6 -57 -10t-62 -4q-26 0 -49 3t-43 11q52 64 90 123t70 114t61.5 107t65.5 102.5t81 99.5
t108 98q23 -25 33.5 -54.5t10.5 -61.5zM1621 930q-73 -59 -128 -114.5t-98 -108.5t-78.5 -104.5t-68.5 -102.5t-67 -102t-76 -104q-57 30 -92 69t-43 69q37 21 74 55t66.5 74.5t48 83.5t18.5 83q0 35 -17.5 66.5t-50.5 45.5q40 43 82.5 73t85 48.5t83 27t78.5 8.5
q60 0 108 -19t75 -48zM1414 443q-16 -6 -33 -11t-37 -5q-3 0 -10 0.5t-14.5 2t-13.5 4.5t-6 8t6.5 8.5t14.5 6t16.5 4t13.5 1.5q23 0 41 -6.5t22 -12.5zM1793 236q-1 -54 -30.5 -98t-74.5 -75t-98.5 -48t-102.5 -17q-15 0 -30.5 1t-31.5 4q5 18 17 47t30 62.5t43.5 67.5
t57.5 61.5t71 44.5t86 17q31 0 46.5 -19t16.5 -48zM1162 726q0 -34 -14 -71.5t-40 -75t-62.5 -73t-82.5 -63.5q-11 31 -11 65q0 39 11.5 82.5t32 86.5t47.5 83t58 72q36 -19 48.5 -45.5t12.5 -60.5zM723 47q-75 -15 -146 -21.5t-138 -6.5q-22 0 -57.5 0.5t-76.5 3t-82.5 8.5
t-75.5 16.5t-55 27t-21 40.5q0 20 24.5 34t58.5 23t69 13t56 4q67 0 130.5 -16t120.5 -38.5t106 -46.5t87 -41z" />
    <glyph glyph-name="T" unicode="T" horiz-adv-x="1175" 
d="M1760 1054q-80 -38 -132 -78t-90 -78q-75 -44 -144 -64t-132 -20q-67 0 -123.5 20t-98.5 60q-30 29 -53.5 71t-44 87.5t-41.5 92t-47 84.5q-42 63 -101 112t-128.5 82t-147 50.5t-156.5 17.5q-80 0 -157 -16t-145 -46.5t-125.5 -74.5t-99 -101.5t-64.5 -126.5t-23 -149
q0 -68 20.5 -125.5t55.5 -103.5t82 -81t100 -58.5t109.5 -35.5t110.5 -12q72 0 145.5 21t133.5 59t97.5 91t37.5 118q0 68 -31 122t-81 91.5t-114.5 57t-131.5 19.5q-32 0 -63.5 -6t-62 -20t-58 -36.5t-50.5 -56.5q16 28 41 48.5t55 33.5t64.5 19t69.5 6q62 0 123.5 -20.5
t111 -56.5t80 -85.5t30.5 -107.5q0 -67 -36.5 -119t-94 -88t-128 -54.5t-137.5 -18.5q-80 0 -161.5 26.5t-148 77.5t-108.5 126.5t-42 174.5q0 112 48.5 203t130.5 155t189.5 99t225.5 35q82 0 156 -19t137.5 -52t114.5 -78t86 -97q22 -33 37.5 -81.5t34 -101t44 -102.5
t66.5 -86q48 -42 105 -58.5t115 -16.5q78 0 154.5 26t145.5 67q-50 -46 -96 -109t-90 -134.5t-88 -147.5t-91 -148t-99 -136.5t-112 -113t-130 -76.5t-152 -28q-45 0 -90 9.5t-88 32.5q72 24 119.5 60.5t76 77t40 81t11.5 72.5q0 53 -28.5 79t-69.5 26q-39 0 -81 -23.5
t-76.5 -61t-57 -83t-22.5 -88.5q0 -42 14.5 -76t36.5 -57q-41 -14 -83.5 -21.5t-96.5 -7.5q-50 0 -94 8.5t-78 28.5t-53.5 52.5t-19.5 79.5q0 33 11.5 65.5t33 58t52.5 42t70 18.5q-43 -1 -76 -17t-55.5 -42t-34.5 -59t-12 -67q0 -49 21 -83t56 -55.5t82 -31t99 -9.5
q54 0 100.5 7t92.5 19q45 -29 101 -42.5t118 -13.5q103 0 186 37.5t152.5 101.5t129 147.5t115 175t109.5 186t113.5 179t127.5 154t150 111.5zM690 312q0 -44 -19.5 -86.5t-51.5 -79t-73 -65.5t-85 -45q-20 19 -34.5 50.5t-14.5 73.5q0 38 19.5 81t50 79t67 59.5t71.5 23.5
q32 0 51 -21.5t19 -69.5z" />
    <glyph glyph-name="U" unicode="U" horiz-adv-x="1550" 
d="M1848 931q0 38 -30 38q-21 0 -52.5 -18t-67.5 -53q-28 -27 -73.5 -75t-98 -108.5t-107.5 -129.5t-102 -138.5t-81.5 -135t-46.5 -119.5q-41 -27 -78.5 -56.5t-72 -53.5t-66 -39.5t-60.5 -15.5t-41 21t-12 48q0 74 38 154.5t98 161.5t134 160.5t145.5 151.5t133 133
t97.5 106q27 6 44.5 17t27 22.5t13 21.5t3.5 15q0 13 -15 13q-6 0 -16 -3.5t-22 -10.5t-24.5 -18t-22.5 -25q-14 -17 -26 -27.5t-32 -25.5q-62 -48 -129 -70.5t-132 -22.5q-69 0 -130 23t-103 66q-30 32 -57.5 77.5t-54 95.5t-52.5 100.5t-54 93.5q-44 69 -103.5 122.5
t-129 91t-146 57t-155.5 19.5q-106 0 -205.5 -38.5t-176 -108.5t-123 -168t-46.5 -218q0 -107 37 -197.5t100.5 -157.5t148.5 -104.5t181 -37.5q74 0 148.5 22t134 62.5t96.5 96.5t37 124q0 73 -34 136.5t-89 110t-124 73t-139 26.5q-31 0 -61 -7t-55.5 -23t-45.5 -42
t-32 -64q12 33 31.5 56.5t45 38t55 21t61.5 6.5q69 0 134.5 -27.5t116.5 -73t82 -103.5t31 -119q0 -71 -35.5 -126t-92.5 -92.5t-128 -57t-142 -19.5q-92 0 -173 36t-141 100t-94.5 152t-34.5 192q0 114 44 208.5t117 162.5t166.5 105.5t191.5 37.5q81 0 158.5 -20.5
t144.5 -57.5t120 -87t84 -108q19 -36 41 -87.5t48 -106t58 -108t71 -94.5q50 -51 110 -72.5t123 -21.5q78 0 150.5 27.5t125.5 69.5q-73 -73 -144.5 -142t-136 -136.5t-119 -134t-94.5 -132.5t-62.5 -133.5t-22.5 -136.5q0 -18 3.5 -35.5t11 -31t20.5 -22t31 -8.5
q30 0 61 14t65.5 37.5t74 54t87.5 64.5q-3 -20 -3 -36q0 -32 9.5 -57t25 -43t36 -28t41.5 -10h8q53 0 98.5 13.5t84.5 35.5t71.5 49.5t61.5 54.5v14q-30 -35 -68.5 -62.5t-80.5 -47t-85.5 -29.5t-82.5 -10q-37 4 -54.5 38t-17.5 79q0 43 14 83l31 27q10 9 20 17.5t21 17.5
q88 75 177 154.5t163.5 162t126.5 167.5t66 171zM1826 930q-10 -60 -44 -122.5t-83 -124t-108.5 -122t-119.5 -116.5t-117 -106.5t-101 -92.5q16 37 46.5 89.5t70 111.5t84.5 121.5t90 121t87.5 108.5t77.5 85q33 33 58.5 51.5t41.5 18.5q17 0 17 -23z" />
    <glyph glyph-name="V" unicode="V" horiz-adv-x="1576" 
d="M3363 1323l-9 3q-34 9 -78.5 21t-98.5 22t-116.5 17t-132.5 7q-125 0 -236 -27t-212 -75t-192.5 -113t-176 -141t-164 -160t-155.5 -168q-77 -85 -142 -168.5t-126.5 -166t-125 -164t-137.5 -163.5q-14 -15 -27.5 -23t-24.5 -8q-16 0 -16 18t21 56q84 146 161 287.5
t155 281t159 278.5t172 281q-27 -29 -66 -85.5t-84.5 -130t-96 -159.5t-100.5 -175t-98.5 -176t-90 -163t-74 -135t-51.5 -93q-21 -38 -21 -65q0 -17 7 -26.5t21 -9.5q12 0 32 8.5t40 30.5q75 85 144.5 164.5t137 157.5t135.5 157t140 165q132 156 256.5 284.5t255.5 220
t277.5 142t323.5 50.5q118 0 224 -17t190 -40zM1785 1160q-56 -101 -130.5 -198.5t-160.5 -175t-179.5 -127.5t-187.5 -57q-11 58 -51.5 109t-102 88t-139 58.5t-161.5 21.5q-44 0 -87.5 -7t-87.5 -22q-17 38 -25.5 79t-8.5 79v12t1 12q59 8 118.5 10.5t119.5 2.5
q125 0 249 -7t243 -7h31q16 0 32 1q141 4 240.5 29t163.5 63t93.5 86t29.5 99q0 54 -32 107t-91.5 94.5t-142.5 67t-185 25.5q-100 0 -202 -16.5t-197.5 -48t-180.5 -79t-150.5 -109t-107 -137.5t-49.5 -166q-8 1 -17 1h-16q-60 0 -120.5 -17.5t-117 -49t-106 -75.5
t-86 -95.5t-57.5 -110t-21 -119.5q0 -88 27.5 -157t74 -121t108 -88.5t129.5 -59t139 -32.5t136 -10q70 0 143 14.5t141 41.5t127.5 66t104 87.5t70.5 106.5t26 122v15t-1 15q25 2 67 12.5t95 35.5t114.5 66.5t126 105.5t129 152.5t122.5 206.5zM1739 1316q0 -50 -29 -98
t-88.5 -86t-151 -61t-216.5 -24q-29 -3 -76 -3q-45 0 -102.5 2t-122 4.5t-133 4.5t-135.5 2q-60 0 -115.5 -2t-104.5 -8q10 81 42.5 147t81.5 119.5t111 94.5t130.5 71.5t139.5 51.5t137.5 34t126 18.5t104.5 5.5q96 0 171 -24t126 -63t77.5 -88t26.5 -98zM1090 600
q-42 -3 -87 -3q-70 0 -143 10.5t-140 37.5t-123 73t-92 118q80 28 163 28q80 0 154 -22.5t131.5 -59.5t94.5 -84.5t42 -97.5zM1092 580q2 -13 2.5 -23t0.5 -21q0 -67 -25 -123.5t-68 -102t-100 -79.5t-121.5 -57t-132.5 -34.5t-133 -11.5t-132.5 11.5t-130 36t-117.5 61
t-96 86t-64.5 113t-23.5 140.5q0 94 43.5 176.5t114 144t159.5 97.5t179 38q-1 -7 -1 -14v-14q0 -23 3 -46.5t8 -44.5t11 -39t12 -31q-61 -21 -107.5 -55t-78 -75t-47.5 -85.5t-16 -86.5q0 -43 17.5 -79t52.5 -59q-32 25 -47.5 58.5t-15.5 71.5q0 40 16.5 83t48.5 83
t78.5 73.5t105.5 56.5q37 -70 93 -118t123.5 -78t143.5 -43t152 -13q23 0 46.5 0.5t46.5 2.5z" />
    <glyph glyph-name="W" unicode="W" horiz-adv-x="1800" 
d="M2520 938q-36 -89 -78 -151t-87 -101t-91.5 -57t-90.5 -18q-46 0 -88 14t-75 51q23 37 47 77.5t43 83t31 88.5t12 96q0 16 -2 40.5t-9.5 47t-23 38.5t-43.5 16q-25 0 -45.5 -14.5t-37 -37.5t-28.5 -51.5t-20 -57t-12 -53.5t-4 -41q0 -38 7.5 -72.5t19 -64.5t25 -54
t26.5 -41q-87 -124 -185.5 -224t-201.5 -181t-206 -145t-200 -116q42 26 81 64t74 83t66.5 94t58.5 97.5t49 94.5t38 84q43 51 92 105.5t89.5 106t67.5 96.5t27 77q0 19 -15 19t-41 -18.5t-56 -51.5q-33 -37 -60.5 -74t-55.5 -81.5t-57.5 -99t-66.5 -126.5
q-54 -53 -126 -118.5t-153 -130t-168 -123t-171 -98.5q108 71 191 161.5t147.5 185.5t112 188.5t83.5 170.5q19 15 47 35.5t59 45t61.5 51.5t55 55.5t40 57t15.5 55.5q0 21 -23 21q-14 0 -36.5 -10.5t-54.5 -34.5q-51 -39 -113 -115t-120 -183q-45 -25 -81.5 -36t-66.5 -11
q-47 0 -81.5 21t-62.5 53t-52 70.5t-48 73.5q-38 54 -90 99t-113 77.5t-128.5 50t-136.5 17.5q-86 0 -166 -32t-141 -84.5t-97.5 -119.5t-36.5 -137q0 -76 35 -141t91.5 -112.5t128.5 -74.5t146 -27q48 0 106.5 14t109 39t84.5 60t34 77q0 53 -30.5 91.5t-75.5 64t-96 37.5
t-91 12q-48 0 -98.5 -14.5t-103.5 -49.5q45 31 89 43t86 12q44 0 96 -12.5t97 -37.5t75 -62t30 -86q0 -42 -31.5 -75t-78 -56.5t-101.5 -36t-101 -12.5q-77 0 -146.5 28t-122.5 75.5t-84 109t-31 128.5q0 73 35.5 140t95 118t136 81t158.5 30q69 0 131 -18.5t116 -52
t100 -80t83 -101.5q26 -39 54 -77.5t61 -69.5t72.5 -50t87.5 -19q32 0 69.5 10.5t81.5 34.5q-27 -46 -59 -104t-69 -122t-78.5 -130t-86.5 -126t-93 -110t-98 -84q50 15 108 46t118.5 71t120.5 85t113 89.5t97 84t72 67.5q-37 -68 -74 -139.5t-77 -134.5t-83.5 -112
t-92.5 -72q97 39 204.5 99t217.5 144t218.5 193.5t206.5 247.5q34 -36 79 -52.5t91 -16.5q50 0 101 23t97 66.5t84.5 106t64.5 142.5zM2126 1030q0 -74 -29 -165t-94 -182q-12 13 -24.5 35.5t-23 52.5t-17 65.5t-6.5 73.5q0 26 7.5 66t24 78t42 65.5t61.5 27.5q19 0 31 -12
t18 -30t8 -38.5t2 -36.5zM1836 908q0 -25 -23.5 -65t-60 -87t-82.5 -98t-92 -98q37 82 79 156t92 134q31 38 50.5 54t28.5 16q8 0 8 -12zM1677 1014q0 -32 -26.5 -69.5t-65.5 -74.5t-83.5 -71t-80.5 -58q18 34 34.5 64t36 57t43 53t54.5 52q29 24 50 39t31 15q7 0 7 -7z" />
    <glyph glyph-name="X" unicode="X" horiz-adv-x="908" 
d="M1352 930q0 20 -9 40.5t-23 32.5q-30 24 -82 24q-40 0 -86 -17q-49 -18 -92 -45.5t-82 -61t-76 -71t-73 -76.5q3 26 7.5 54.5t4.5 59.5t-7.5 60.5t-23.5 52t-42.5 36t-63.5 13.5q-47 0 -97.5 -29t-92.5 -73t-69 -97.5t-27 -101.5q0 -13 3 -24.5t11 -19.5q0 1 1 2t7 1
q-11 12 -11 36q0 29 11.5 61.5t31.5 64t47 60t58.5 50.5t65 35t67.5 13q23 0 43 -6t35 -19.5t24 -35t9 -51.5q-5 -47 -12.5 -81t-16 -61t-19 -48.5t-21.5 -42.5q-32 -60 -61 -115t-60.5 -109t-68 -108t-82.5 -112q-88 -110 -175 -198t-184.5 -150t-210 -95t-250.5 -33
q-79 0 -154.5 20.5t-135 61t-95.5 101t-36 140.5q0 70 25.5 131.5t70 112.5t103 90.5t124.5 66.5t135.5 41.5t135.5 14.5q60 0 121 -14.5t110.5 -45.5t80.5 -79t31 -115q0 -56 -25.5 -106t-68 -92t-98 -75.5t-114.5 -56.5t-117.5 -35.5t-107.5 -12.5q-55 0 -100 15t-77.5 40
t-50.5 57t-18 67q0 44 21 84t56 75t80 63.5t92.5 48.5t95 31t86.5 11q36 0 71 -6t62.5 -21t44.5 -40.5t17 -63.5q0 -55 -36 -98t-89 -73t-112.5 -46t-107.5 -16q-54 0 -83 21t-29 52q0 32 17 56.5t42.5 42.5t56.5 30t58.5 19t48 10t25.5 3q-34 0 -78.5 -9t-84.5 -28.5
t-67.5 -51t-27.5 -77.5q0 -15 6 -29.5t20 -26.5t36.5 -19t55.5 -7h2q18 0 51.5 5.5t73.5 17t82 30.5t76 46.5t56 64t22 82.5q0 37 -19 64t-48.5 44t-66.5 25t-73 8q-45 0 -96 -11t-101 -31t-95.5 -48.5t-80.5 -64t-56 -77.5t-21 -88q0 -44 22.5 -81t61 -63t90 -40.5
t108.5 -14.5q66 0 130.5 16.5t123 45t108 67t86 83t57 92t20.5 93.5q0 69 -32 119t-83 82.5t-114 48.5t-126 16q-64 0 -133.5 -14.5t-136.5 -42t-128 -68t-106.5 -92.5t-72.5 -114.5t-27 -134.5q0 -86 35.5 -151.5t94.5 -109.5t135.5 -67t158.5 -23q146 0 270.5 42t231 112
t197 161t167.5 189q-4 -16 -6.5 -34.5t-2.5 -38.5q0 -30 7 -58t22 -49t38.5 -34t55.5 -13q47 0 89.5 18.5t79 49t66 69t50.5 78.5t32 77.5t11 66.5q0 22 -5.5 44.5t-19 40.5t-37 30.5t-60.5 14.5v-7q30 -2 51.5 -12.5t35 -27.5t19.5 -38.5t6 -44.5q0 -29 -12 -65.5
t-33.5 -75t-51 -74.5t-64 -64.5t-73.5 -46t-79 -17.5q-48 0 -73 22.5t-25 63.5q0 35 13.5 67.5t26.5 64.5q17 43 45 97t60.5 112t67 116.5t64.5 111.5q54 94 134.5 175t177.5 141q26 17 49 23t42 6q27 0 47.5 -11t36.5 -25q12 -12 17 -29t10 -39q1 -2 3.5 -6t6.5 -4
q6 0 8 11t2 19z" />
    <glyph glyph-name="Y" unicode="Y" horiz-adv-x="600" 
d="M1139 1016q0 36 -32 36q-18 0 -45 -15t-59 -48q-71 -72 -145 -166.5t-146 -197.5t-140.5 -208t-128.5 -199q-31 -27 -70 -63t-83.5 -69t-92 -55.5t-96.5 -22.5q-30 0 -49.5 14t-19.5 47q0 13 8 33t21.5 43.5t30.5 49.5t35 52q57 85 115.5 163t106 151.5t77.5 143.5
t30 140q0 43 -14.5 80.5t-43.5 65.5t-73 44t-103 16q-60 0 -128 -22t-135.5 -59.5t-129.5 -88t-109.5 -108t-76 -119t-28.5 -120.5q0 -42 13 -74.5t36.5 -54.5t56 -33t70.5 -11q49 0 90.5 16.5t74.5 43t57.5 59.5t41 65.5t24.5 61.5t8 47q0 35 -23 57.5t-57 22.5
q-19 0 -39.5 -8t-40.5 -28q37 30 71 30q30 0 48.5 -21.5t18.5 -52.5q0 -57 -24.5 -108.5t-64 -90.5t-89.5 -62t-101 -23q-68 0 -110 40t-42 112q0 59 27 120.5t72 119t104.5 108t125 88t133 59t128.5 21.5q47 0 84.5 -15t63 -41.5t39 -62t13.5 -75.5q0 -67 -34 -136.5
t-84 -140.5t-107.5 -142.5t-104.5 -141.5q-38 -56 -66 -110.5t-28 -114.5q0 -16 8 -27.5t20.5 -18.5t29 -10.5t34.5 -3.5q48 0 91.5 16t83.5 41.5t76.5 57t70.5 61.5l-225 -345q-12 1 -24 1h-25q-52 0 -140 -12.5t-197 -37.5t-231 -63t-242 -89.5t-229 -117t-192.5 -145
t-133 -174t-49.5 -203.5q0 -69 54 -109.5t148 -40.5q47 0 100.5 11.5t116.5 33.5q126 43 242.5 112t221.5 152t197.5 174.5t171 180t142 168.5t109.5 140q102 -1 185 -28.5t142.5 -77t92 -117.5t32.5 -149q0 -90 -42.5 -168t-110.5 -135t-153.5 -89.5t-172.5 -32.5
q-42 0 -87.5 10.5t-84 33.5t-63 59t-24.5 87q0 23 6.5 47t20.5 48q-17 -21 -24.5 -46.5t-7.5 -51.5q0 -55 24 -94t63.5 -63.5t90.5 -36t104 -11.5q60 0 119.5 13.5t113.5 39.5t100 63t80 84.5t53 104t19 121.5q0 85 -30.5 157t-89.5 125.5t-146.5 85t-202.5 36.5
q87 115 162 234t154 239q83 73 159.5 152t144 157t125 151.5t102.5 135.5q56 78 56 122zM1127 1010q0 -17 -11 -45t-40 -64q-64 -82 -124 -157.5t-120 -145t-122 -133.5t-129 -124q46 75 95.5 153.5t104 159.5t115 163t129.5 164q23 28 44 42t35 14q23 0 23 -27zM178 -186
q-53 -73 -118.5 -158t-143 -173.5t-166 -175.5t-186 -164.5t-204 -140t-219.5 -101.5q-63 -22 -114.5 -34t-94.5 -12q-88 0 -132 40t-44 102q0 108 49.5 200.5t133.5 170t193.5 140.5t230 112.5t243.5 85.5t232.5 60t198.5 35.5t141 12.5z" />
    <glyph glyph-name="Z" unicode="Z" horiz-adv-x="1300" 
d="M2351 -653q0 39 -18.5 72t-49.5 57t-72 37.5t-85 13.5q-20 0 -39.5 -2.5t-39.5 -8.5q-17 32 -48.5 55.5t-71 38.5t-84 22.5t-87.5 7.5q-29 0 -57 -3.5t-53 -9.5q-19 58 -62 106t-104 82.5t-137 54t-162 20.5q-1 45 -18 87t-43.5 76t-60 58.5t-67.5 33.5l240 349
q66 4 126.5 26t110.5 50.5t86 59.5t52 53q14 18 20 34.5t6 29.5q0 37 -43 37q-13 0 -30 -4t-37 -13q-93 -42 -166 -102.5t-139 -148.5q-11 -2 -22 -2h-20q-90 0 -140 44.5t-73 135.5q-19 104 -75.5 178t-135.5 121t-172.5 69t-185.5 22q-57 0 -120 -11t-129 -44
q-68 -33 -117 -77.5t-80.5 -96t-47 -107.5t-15.5 -112q0 -93 41 -178t112 -149t167 -102t207 -38q66 0 128 19.5t110 57t77 91.5t29 124q0 58 -26.5 111.5t-70.5 95t-101.5 66t-120.5 24.5q-44 0 -86 -10.5t-78.5 -31.5t-65 -52t-44.5 -72q45 76 115 113.5t146 37.5
q56 0 111 -22.5t99 -60t71 -87.5t27 -105q0 -77 -30.5 -131t-78.5 -88.5t-107 -50t-116 -15.5q-95 0 -183 35t-156 97t-108.5 147t-40.5 185q0 51 13.5 101.5t43 98.5t76 91.5t111.5 79.5q61 27 122 38.5t122 11.5q92 0 180.5 -23.5t160 -70.5t120.5 -118.5t62 -168.5
q7 -50 34 -86.5t64 -60.5t79 -35.5t79 -11.5h12t12 1l-236 -342q-10 2 -20 3t-21 1q-68 0 -140.5 -35.5t-131.5 -102.5q-11 -12 -14.5 -23t-3.5 -19q0 -17 13 -25t34 -8q24 0 58 13q30 15 62.5 34.5t63.5 41.5t59 46t48 49q77 -17 115.5 -78.5t40.5 -158.5h-2
q-48 0 -114.5 -8.5t-143.5 -26t-159 -44.5t-160.5 -63.5t-148.5 -82.5t-123 -103t-84 -124.5t-31 -145.5q0 -34 11 -64.5t34.5 -54t61 -37t91.5 -13.5q102 0 202.5 36t192 95t170 135.5t136 158t90 162t32.5 146.5v13q72 0 144.5 -19t134 -52.5t105 -79t56.5 -97.5
q-59 -16 -119.5 -46.5t-110 -72.5t-81 -93.5t-31.5 -110.5q0 -37 11 -61t30 -38t43.5 -19.5t50.5 -5.5q60 0 105.5 34.5t75.5 87.5t45 116t15 119q0 43 -9 79q24 6 51.5 9.5t56.5 3.5q40 0 81.5 -6.5t78 -20.5t65.5 -35t46 -49q-50 -20 -72.5 -51t-22.5 -60q0 -23 15.5 -40
t38.5 -17q16 0 30 11.5t23.5 28.5t15 38t5.5 41q0 22 -8 38q36 15 76 15t78 -13.5t67.5 -37.5t47 -56.5t17.5 -69.5q0 -35 -15.5 -73t-41.5 -70t-60.5 -53.5t-73.5 -22.5q46 0 83 22t63.5 56t41 73.5t14.5 75.5zM1620 749q0 -10 -6.5 -24.5t-21.5 -34.5q-23 -33 -62 -63
t-86.5 -54t-99.5 -39t-101 -18q27 37 61 74t71.5 69.5t76 57.5t75.5 39q40 14 64 14q29 0 29 -21zM2043 -542q0 -17 -4.5 -34.5t-13 -32t-19.5 -23.5t-23 -9q-15 0 -24.5 10.5t-9.5 24.5q0 24 22.5 52.5t64.5 47.5q7 -14 7 -36zM1636 -460q0 -57 -18.5 -117t-49 -110
t-70 -83.5t-80.5 -37.5q-57 0 -87 29t-30 80t28.5 99t75 88t105.5 70.5t119 47.5q7 -29 7 -66zM949 130q-50 -57 -104 -97t-111 -70q-30 -11 -52 -11q-15 0 -24 5.5t-9 16.5q0 16 20 40q54 52 116 86t125 34q22 0 39 -4zM1130 -135v-7q0 -44 -15.5 -98t-45 -112.5t-71 -119
t-93.5 -117t-113.5 -106t-130 -86t-143 -58t-153.5 -21.5q-52 0 -87 14t-56.5 37t-30.5 52t-9 58q0 82 44.5 155t119 135t172 111.5t203 85t211.5 55.5t198 22z" />
    <glyph glyph-name="asciicircum" unicode="^" horiz-adv-x="400" 
d="M608 914l-11 8q-30 -31 -58 -54t-57 -41t-59.5 -31t-65.5 -23l13 -8q17 2 35 4.5t37.5 8.5t40.5 16t45 27q8 -14 15.5 -31t21.5 -25q5 0 11 3q-4 14 -8.5 28t-4.5 31q0 19 9.5 40t35.5 47z" />
    <glyph glyph-name="underscore" unicode="_" horiz-adv-x="790" 
d="M807 192h-7q-8 -27 -24.5 -50t-37 -41.5t-44.5 -32t-47 -21.5q-48 -11 -83 -16.5t-69 -5.5q-43 0 -90.5 9t-117.5 27q6 15 6 27q0 20 -16 30.5t-39 10.5q-28 0 -53 -13h4q19 6 37 6q22 0 37.5 -9t15.5 -26q0 -11 -7 -22q-11 4 -26.5 8t-33.5 7.5t-37 5.5t-37 2
q-15 0 -28 -1.5t-23 -6.5q-16 -7 -23 -16.5t-7 -18.5q0 -18 19 -27q18 -10 37 -14t39 -4q32 0 63 11.5t57 31.5q24 -5 51 -12t57 -14t62.5 -12t68.5 -5q34 0 69.5 5.5t73.5 19.5q47 22 90 66t63 101zM254 47q-26 -19 -52 -26t-49 -7q-17 0 -31 3t-24 8q-12 10 -12 18
q0 10 15 18q18 3 38 3q26 0 54.5 -4.5t60.5 -12.5z" />
    <glyph glyph-name="grave" unicode="`" horiz-adv-x="0" 
d="M403 505l-94 182q-23 7 -29 17.5t-10 10.5q-2 0 -5 -3l131 -214z" />
    <glyph glyph-name="a" unicode="a" horiz-adv-x="376" 
d="M472 178q0 2 -7 3q-8 -9 -29.5 -36t-51 -56.5t-64.5 -52t-69 -22.5q-14 0 -22 3.5t-8 17.5q0 8 2.5 17t8.5 20q25 43 60 98.5t68.5 109t62 99t42.5 68.5h-51l-29 -47q-8 27 -21.5 37t-29.5 10q-31 0 -68 -17t-73.5 -45t-71 -65t-60.5 -77.5t-42 -82t-16 -78.5
q0 -12 2.5 -26.5t8.5 -26.5t16.5 -20.5t26.5 -8.5q23 0 42.5 7.5t35.5 19t29.5 25.5t24.5 28q-4 -8 -7.5 -17t-3.5 -20q0 -16 13 -30.5t39 -14.5q42 0 78 20t66 48.5t54.5 59.5t43.5 52zM370 396q0 -6 -3.5 -15t-5.5 -17q-3 -5 -13.5 -23t-26 -43t-33.5 -53.5t-34.5 -54.5
t-29.5 -46t-19 -28q-14 -18 -30 -36.5t-33.5 -33.5t-36.5 -24.5t-39 -9.5q-14 0 -19 10.5t-5 23.5q0 25 14.5 64t39 82.5t55.5 87t63.5 79t64 57.5t56.5 22q16 0 25.5 -10.5t9.5 -31.5z" />
    <glyph glyph-name="b" unicode="b" horiz-adv-x="325" 
d="M740 1039q0 19 -9 27.5t-24 8.5q-21 0 -50.5 -14.5t-62 -40t-65.5 -59.5t-60 -74q-36 -54 -67.5 -102t-60.5 -94.5t-58.5 -94t-61.5 -100t-69.5 -113t-82.5 -133.5q-35 -57 -54.5 -100.5t-19.5 -76.5q0 -38 25.5 -55.5t58.5 -17.5q37 0 79 7.5t81 21.5t72 33t52 43l-7 7
q-37 -37 -91 -61t-124 -30q41 27 76 65.5t60.5 82t39.5 88t14 82.5q0 37 -17.5 57.5t-43.5 20.5q-14 0 -28 -6t-28 -19l47 73q75 52 150 117t139 135.5t112.5 144t71.5 141.5q4 11 5 19.5t1 16.5zM728 1047q0 -18 -8 -37q-27 -61 -68.5 -127t-96.5 -132.5t-125 -133
t-154 -127.5q15 24 39 63t53 86t62 99t67 102.5t67.5 95.5t64.5 78q30 32 51 43.5t32 11.5q9 0 12.5 -6.5t3.5 -15.5zM316 337q-5 -39 -19 -81.5t-37.5 -82t-56.5 -74t-76 -56.5q-24 -13 -50 -13q-17 0 -28 8t-11 31q0 19 10.5 58t52.5 98l88 124q20 28 41 40.5t38 12.5
q21 0 34.5 -17t13.5 -48z" />
    <glyph glyph-name="c" unicode="c" horiz-adv-x="290" 
d="M387 404q-2 19 -11.5 30.5t-32.5 11.5q-43 0 -83.5 -17.5t-77 -46.5t-67 -66.5t-52 -77t-34 -78t-12.5 -70.5q0 -39 18.5 -65.5t63.5 -26.5q42 0 81 13.5t73.5 37t63 54t50.5 64.5h-12q-10 -16 -33 -42.5t-56 -52t-73.5 -44t-85.5 -18.5q-28 0 -41.5 15.5t-13.5 41.5
q0 36 21.5 83t53.5 94.5t69 89t69 66.5q43 34 70 34q35 0 35 -38q0 -17 -8.5 -27.5t-34.5 -27.5l3 -7q24 17 40.5 33.5t16.5 36.5z" />
    <glyph glyph-name="d" unicode="d" horiz-adv-x="416" 
d="M850 1032h-47q-19 -31 -46.5 -75.5t-61 -97.5t-71 -111.5t-75.5 -117.5t-75.5 -115.5t-70.5 -104.5q-8 23 -23.5 31.5t-35.5 8.5q-42 0 -83 -19.5t-77 -51.5t-67 -73.5t-53 -84t-34.5 -83.5t-12.5 -73q0 -33 14 -49.5t38 -16.5q27 0 52 16.5t46.5 39t39.5 46t32 37.5
q-14 -28 -19.5 -47t-5.5 -30q0 -35 20 -48t48 -13q36 0 66.5 15t56.5 37t48 47t41 46l-4 11q-25 -27 -48 -53t-46.5 -46.5t-49 -33t-55.5 -12.5q-22 0 -38.5 8.5t-16.5 26.5q0 16 14 34q26 41 61 96.5t76 119.5t86 134t89.5 141t88 139t81 128.5t68 110.5t50.5 83zM390 406
q0 -7 -1 -13.5t-4 -14.5q-21 -20 -43.5 -55t-47.5 -75.5t-52 -82.5t-55 -76t-57 -56t-59 -22q-14 0 -22 8t-8 25q0 31 15 73t40.5 86t58 87t67.5 77t69 55t63 21q36 0 36 -37z" />
    <glyph glyph-name="e" unicode="e" horiz-adv-x="266" 
d="M336 422q0 12 -8 19t-21 7l-7 -1q-42 -7 -80.5 -27.5t-71.5 -51t-60 -67t-46.5 -74.5t-30 -74.5t-10.5 -65.5q0 -50 18.5 -68.5t48.5 -18.5q31 0 67 12t70 32.5t62.5 48.5t45.5 60l-4 9q-13 -26 -39.5 -52.5t-59.5 -48.5t-68.5 -36t-65.5 -14q-18 0 -32 10.5t-14 43.5
q0 32 19 70t39 79q48 31 92.5 56t79 48t55.5 48t21 56zM325 421q0 -21 -19 -44.5t-50.5 -47.5t-73 -48.5t-87.5 -48.5q3 6 12.5 24t24.5 40.5t34 47t41 45t46 34t49 13.5q23 0 23 -15z" />
    <glyph glyph-name="f" unicode="f" horiz-adv-x="310" 
d="M803 1026q0 26 -12 40t-32 14q-32 0 -80 -36t-105 -117q-31 -44 -73 -108t-87.5 -135t-90.5 -143.5t-83 -133.5h-150v-11q37 -10 57 -34.5t20 -53.5q0 -10 -2.5 -20t-8.5 -19q-44 -72 -91.5 -150.5t-96 -158t-95.5 -158.5t-89.5 -152t-79.5 -137.5t-64 -116.5h47
q22 37 57.5 97.5t79.5 133.5t93.5 155t98.5 163t95 157t83 137t62.5 102.5t33.5 54.5h131v11h-123l22 33q12 10 24.5 19.5t25.5 19.5q73 57 150 120.5t140 132t103 142.5t40 152zM797 1027q0 -71 -40.5 -143.5t-105 -142.5t-145 -134.5t-161.5 -119.5q23 39 51 86.5t59 98
t64 102.5t66 99.5t64.5 88.5t59.5 70q20 20 34.5 28.5t25.5 8.5q14 0 21 -12t7 -30zM236 396l-58 -95q0 23 -5 38.5t-13.5 26.5t-19 18t-20.5 12h116z" />
    <glyph glyph-name="g" unicode="g" horiz-adv-x="424" 
d="M529 231v15q-22 -17 -56.5 -45.5t-75 -63t-84.5 -70.5t-84 -67l272 447h-47l-22 -33q0 17 -12.5 24.5t-33.5 7.5q-39 0 -80.5 -15.5t-81.5 -41.5t-76 -61t-63 -73.5t-43 -79t-16 -77.5q0 -18 3 -35.5t11 -32t21.5 -23t34.5 -8.5q19 0 38.5 8.5t37 21t33 27t27.5 27.5
l-97 -150q-26 -26 -71.5 -62t-98.5 -80t-107.5 -94.5t-98.5 -106t-72 -114.5t-28 -119q0 -31 13.5 -46t35.5 -15q44 0 89 33t89 88t86.5 125t83.5 143.5t79 145.5t72 129q41 34 89 76.5t93.5 81.5t83 70t56.5 43zM417 397q0 -7 -3 -16l-185 -283q-14 -13 -28.5 -28.5
t-30.5 -29t-34.5 -22.5t-39.5 -9q-22 0 -31.5 14t-9.5 36q0 32 16 72.5t42.5 82t60.5 81t69 70.5t69 49.5t61 18.5q20 0 32 -9.5t12 -26.5zM116 -102q-21 -37 -51 -95t-66 -123.5t-75.5 -131.5t-79 -119t-76.5 -86.5t-68 -33.5q-29 0 -29 44q0 50 23 102t61 102.5t86 99
t97.5 92t96 81.5t81.5 68z" />
    <glyph glyph-name="h" unicode="h" horiz-adv-x="480" 
d="M810 1037q0 10 -6.5 24t-22.5 14q-27 0 -55 -16t-53 -38.5t-45.5 -46.5t-31.5 -40q-19 -28 -47 -69t-60 -88.5t-66.5 -99.5t-67.5 -101.5t-62 -94t-50 -78.5l-73 -69l8 -7l36 33l-214 -360h47l167 280q17 29 35.5 48.5t36.5 34t34.5 24.5t28.5 20q15 11 30.5 18.5
t27.5 7.5q21 0 21 -22q0 -13 -7 -30q-4 -15 -22.5 -48.5t-44 -77t-54.5 -93t-53 -97.5q-6 -18 -6 -31q0 -20 13.5 -27.5t33.5 -7.5q34 0 70 13t70 35t65.5 49t58.5 56l-7 4q-10 -8 -33.5 -32t-56 -49.5t-71 -45t-77.5 -19.5q-14 0 -23 5t-9 18q0 12 8 28q19 40 47.5 90.5
t55 98.5t45.5 87t19 55q0 8 -1 17.5t-4.5 18t-10.5 14t-19 5.5q-8 0 -20.5 -3t-27.5 -12q-17 -10 -48 -30t-61 -50q18 27 27 40t15.5 21.5t12.5 18t17 29.5q53 38 109.5 78.5t109.5 84t100.5 91t83 99t56.5 107t21 116.5zM797 1033q0 -52 -21 -103.5t-56.5 -100.5t-82 -95.5
t-96 -89t-99.5 -80.5t-93 -70q27 37 61.5 93.5t73 120t78.5 127.5t78.5 115.5t73.5 83.5t62 33q10 0 15.5 -11t5.5 -23z" />
    <glyph glyph-name="j" unicode="j" horiz-adv-x="276" 
d="M401 617q0 11 -5 15q-7 7 -15 7t-18 -7q-5 -5 -5 -16q0 -9 5 -16q10 -7 17 -7q5 0 16 7q5 6 5 17zM407 265l-11 11q-22 -17 -59.5 -42.5t-81.5 -57t-91 -66.5t-88 -70l247 407h-47l-284 -462q-63 -64 -139 -132.5t-148 -141.5t-130.5 -150.5t-84.5 -160.5q-3 -14 -5 -25
t-2 -21q0 -28 11.5 -40.5t30.5 -12.5q36 0 82 37q32 25 69 69.5t76.5 101t80 121.5t80.5 131.5t77.5 130t70.5 118.5q39 38 89 76t99 72t91.5 62t66.5 45zM-37 -70q-23 -37 -51.5 -88t-60 -107.5t-65.5 -115t-67.5 -111t-66 -95.5t-60.5 -68q-41 -36 -66 -36q-30 0 -30 45
q0 8 1 19t4 23q15 43 45 90.5t68.5 96t83.5 97t91 93t91 84.5t83 73z" />
    <glyph glyph-name="k" unicode="k" horiz-adv-x="399" 
d="M806 1042q0 9 -3 12q-2 10 -10 15.5t-20 5.5q-8 0 -17 -2.5t-18 -7.5q-49 -26 -95.5 -76t-91 -112t-87 -131t-83.5 -132q-87 -133 -183.5 -291t-197.5 -323h47l145 240q6 3 14 3q13 0 25 -8.5t12 -34.5q0 -9 -4.5 -24.5t-10.5 -32.5t-12 -33.5t-9 -26.5t-5 -18.5
t-2 -16.5q0 -19 14 -34t36 -15q34 0 70 19.5t69.5 48t62.5 60t49 54.5h-11q-15 -15 -42 -44t-59 -58t-65.5 -50.5t-62.5 -21.5q-9 0 -19.5 7.5t-10.5 22.5q0 16 6 34.5t13.5 37t14 36.5t6.5 34q0 24 -12 40.5t-23 23.5q31 3 66 15.5t65 32t49.5 45t19.5 54.5q0 23 -18 39.5
t-41 16.5q-13 0 -26.5 -5t-27.5 -16l6 -6q6 6 18.5 12.5t25.5 6.5q18 0 25 -13.5t7 -29.5q0 -29 -20.5 -55t-49.5 -46t-62 -31.5t-58 -11.5q-6 0 -15 3q15 23 31.5 50t33.5 55t33.5 54t31.5 48l60 48t89.5 76t102 98t99 113t80.5 121.5t45 124.5zM789 1025
q0 -22 -27.5 -75.5t-82.5 -126.5t-137.5 -158.5t-192.5 -170.5q65 103 115.5 183.5t91.5 143t75 109.5t67 84q28 30 45 41.5t27 11.5q14 0 16.5 -14.5t2.5 -27.5z" />
    <glyph glyph-name="l" unicode="l" horiz-adv-x="296" 
d="M786 1045q0 17 -9.5 24.5t-22.5 7.5q-17 0 -39 -11t-45 -27.5t-44 -37t-35 -38.5q-46 -61 -99 -142t-109.5 -173t-116 -191.5t-119.5 -198.5q-7 -12 -14.5 -23t-16.5 -23t-21.5 -26.5t-30.5 -33.5l7 -7q7 6 13 6t8.5 -6t4 -15.5t2 -22t1.5 -24.5q3 -36 25 -59.5t50 -23.5
q46 0 75 22.5t51.5 52t43.5 59t50 44.5h-11q-23 -10 -43 -37.5t-43 -57t-51.5 -52t-67.5 -22.5q-11 0 -18.5 6.5t-13 17t-8.5 23t-6 24.5q-2 11 -4 25t-5 26.5t-8.5 21.5t-15.5 10q23 15 42 35.5t30 38.5q7 12 27.5 42.5t42.5 65.5t41 67.5t24 48.5q48 32 102.5 78.5
t107.5 101t102 112.5t86 112t59 101t22 79zM774 1043q0 -29 -18 -70.5t-50 -90t-75 -101t-92.5 -104t-104 -98.5t-108.5 -85q21 34 52.5 83.5t67 104.5t72.5 110t69 101.5t55.5 79t32.5 41.5q29 31 48.5 44t30.5 13t15.5 -8t4.5 -20z" />
    <glyph glyph-name="m" unicode="m" horiz-adv-x="690" 
d="M770 167l-3 3q-16 -17 -41 -44.5t-55 -54t-63 -46t-66 -19.5q-12 0 -18.5 6.5t-10 14.5t-4 15.5t-0.5 10.5q0 24 25 63.5t55.5 85.5t55.5 94.5t25 91.5l-1 12q-2 20 -10 33t-27 13q-31 0 -55 -13.5t-45 -34.5t-41.5 -47.5t-43.5 -52.5q7 14 12.5 37t5.5 46q0 26 -10 45.5
t-36 19.5q-30 0 -53 -14t-43 -35t-38.5 -45t-38.5 -43l84 138h-54l-276 -447h54q16 24 28.5 44t23.5 38.5t23.5 37.5t30.5 43q12 16 30 43t39 57.5t44.5 61.5t48.5 56t49.5 41t46.5 16q17 0 23.5 -9.5t6.5 -24.5q0 -13 -4 -28.5t-10 -31.5t-13.5 -30t-13.5 -24l-182 -290h55
q18 31 40.5 68t47.5 76.5t51 79.5t50 77q12 18 30.5 42t41 45t45.5 36t44 15q14 0 19.5 -9t5.5 -23q0 -15 -7 -33t-17 -36.5t-21.5 -37.5t-20.5 -35q-12 -21 -30.5 -44.5t-36 -49.5t-29.5 -54.5t-12 -59.5q0 -58 65 -58q35 0 66.5 18.5t59.5 44.5t52.5 55t45.5 50z" />
    <glyph glyph-name="n" unicode="n" horiz-adv-x="458" 
d="M523 149v7q-30 -30 -60 -57.5t-57.5 -47.5t-51.5 -32t-42 -12q-24 0 -24 23q0 30 13 64t32.5 68t41.5 67.5t41.5 63.5t32 55.5t12.5 43.5q0 31 -10.5 42.5t-24.5 11.5q-11 0 -22.5 -4.5t-22.5 -12.5q-20 -14 -60.5 -51t-84.5 -86l94 155h-54l-276 -447h54q33 49 64 101.5
t63 101.5q15 23 37.5 51.5t48.5 57.5t55 56.5t56 49.5q16 12 27 17t19 5q11 0 15.5 -6.5t4.5 -16.5q0 -14 -8 -28q-17 -34 -47 -79.5t-59.5 -93t-51 -92t-21.5 -76.5q0 -20 8.5 -33t21.5 -15q31 0 59.5 11.5t57 31.5t57.5 47t62 59z" />
    <glyph glyph-name="o" unicode="o" horiz-adv-x="360" 
d="M549 334q-15 -10 -32 -12t-19 -2q-36 0 -71.5 10.5t-56.5 21.5q-11 -37 -34.5 -83.5t-57 -93t-75 -88.5t-87.5 -69q-37 -17 -65 -17q-49 0 -49 55q0 19 8 49q9 31 26 69t40.5 76t52 73.5t60.5 63.5t67 44.5t71 16.5q20 0 29 -10t14 -24q0 -5 1 -14t1 -17q0 -7 -2 -13
q3 -2 14.5 -11t25.5 -14q25 -11 47 -15.5t41 -4.5q17 0 31 5.5t20 9.5v-6v0zM360 407q0 12 -8.5 21.5t-22.5 9.5q-28 0 -60.5 -25.5t-65.5 -64.5t-64 -86.5t-55.5 -91.5t-41.5 -78.5t-21 -48.5q-2 -8 -2 -12q0 -27 32 -27q14 0 31.5 5.5t37.5 19.5q49 35 92.5 82t76.5 98.5
t52 102.5t19 95z" />
    <glyph glyph-name="p" unicode="p" horiz-adv-x="462" 
d="M-341 -607l-62 -7l203 344l512 811h48l-120 -189q29 16 46.5 33t32 31t30.5 22.5t43 8.5q20 0 30 -13.5t10 -33.5q0 -11 -3.5 -24.5t-8 -25.5t-9.5 -22.5t-8 -15.5l-127 -225q-8 -15 -13 -26.5t-5 -20.5q0 -29 35 -29t97 34.5t137 110.5l7 -4q-30 -37 -66 -65.5t-71 -48
t-68 -30t-57 -10.5q-23 0 -36 8t-13 28q0 11 6.5 28t17.5 36q9 18 25 46t34.5 60t37.5 64.5t34 58.5q14 24 21.5 46.5t7.5 38.5q0 24 -19 24q-27 0 -60 -25t-68 -64.5t-69 -88t-64 -95.5l-269 -429z" />
    <glyph glyph-name="q" unicode="q" horiz-adv-x="409" 
d="M527 261q0 3 -4 3.5t-7 0.5q-56 -90 -124.5 -194t-142.5 -213.5t-151 -219t-149 -209.5q-11 -14 -22 -23.5t-17 -9.5q-5 0 -5 7q0 12 11 37q104 174 185 309l142.5 237.5l105 175l73.5 122.5t48.5 80t28.5 47t14.5 24.5t6.5 11.5h-48l-43 -73q3 12 3 22q0 23 -14 36.5
t-40 13.5q-38 0 -78 -19.5t-77.5 -50.5t-70.5 -69.5t-58 -75.5t-39.5 -70t-14.5 -52q0 -23 2.5 -43.5t9 -35.5t17.5 -24t29 -9q24 0 69 24q32 17 56.5 38t41.5 35q-72 -112 -145 -228.5t-142 -236.5q-14 -24 -28 -49.5t-27 -50.5t-22.5 -49t-13.5 -44q-3 -12 -3 -21
q0 -30 22 -30q9 0 20.5 6.5t22.5 22.5q139 190 286 400t292 447zM424 394q0 -16 -6 -38q-17 -30 -37.5 -66t-43.5 -72.5t-48 -70.5t-49 -60q-10 -11 -28 -24.5t-38.5 -25t-41.5 -19.5t-37 -8q-14 0 -22 9.5t-8 38.5q12 30 30.5 69.5t42 81.5t52 82.5t60 73t66.5 52t71 19.5
q17 0 27 -9.5t10 -32.5z" />
    <glyph glyph-name="s" unicode="s" horiz-adv-x="368" 
d="M461 189l-7 7q-26 -40 -60 -69t-66 -48.5t-56 -29t-29 -9.5q39 17 66.5 64t27.5 120q0 51 -18 106t-61 106l3 11h-21q-23 -34 -52.5 -83t-63.5 -99.5t-71 -96.5t-75 -74l11 -7q31 19 65.5 59.5t68.5 90.5t66 103.5t58 99.5q9 -9 18 -27t16.5 -42.5t12.5 -54t5 -60.5
q0 -41 -13 -85t-40.5 -80t-70.5 -59.5t-103 -23.5q-25 0 -38.5 12.5t-23.5 29.5q-5 13 -10 13q-4 0 -4 -20q12 -31 41 -37t72 -6q49 0 98 10t94.5 32.5t86 58.5t73.5 88z" />
    <glyph glyph-name="t" unicode="t" horiz-adv-x="307" 
d="M429 625h-48l-120 -185h-87v-11h80q-41 -60 -81 -119.5t-75 -117.5q-45 -71 -45 -126q0 -37 23 -56q11 -11 39 -11q16 0 32 3t27 8q45 22 84.5 45t70.5 46t52 45t29 43h-7q-25 -42 -85 -87t-148 -84q-10 -5 -25 -8.5t-30 -3.5q-10 0 -18.5 1.5t-13.5 6.5q-5 8 -7.5 15.5
t-2.5 16.5q0 7 1 14.5t6 15.5q4 17 14 34t22 35q20 30 44 65.5t49 72.5t49.5 74.5t46.5 71.5h76l11 11h-83z" />
    <glyph glyph-name="u" unicode="u" horiz-adv-x="586" 
d="M206 117q7 19 16 32l197 298h51q-10 -17 -33 -52t-52.5 -79t-62 -93t-60.5 -93q-6 -9 -14 -21.5t-15.5 -26t-12.5 -26t-5 -20.5q0 -15 7 -21t18 -6q12 0 27 6t28 14q33 20 59.5 48.5t45.5 52.5l204 317h51q-52 -82 -100.5 -164t-106.5 -163q-19 -26 -25.5 -43t-6.5 -31
q0 -8 3 -17q13 -20 35 -20q26 0 59 23q31 21 54.5 41.5t51.5 42.5l7 -7q-14 -11 -29 -23.5t-29.5 -24.5t-28 -22.5l-22.5 -17.5q-20 -11 -36 -15.5t-29 -4.5q-15 0 -25.5 4.5t-18.5 12.5q-11 10 -15.5 25.5t-4.5 30.5q0 22 5 35q-11 -14 -21 -26t-21.5 -22.5t-26 -21
t-33.5 -21.5q-13 -5 -29 -10.5t-30 -5.5q-16 0 -24 8q-14 17 -14 46q0 25 5 40.5t6 9.5q-10 -11 -20 -23t-21.5 -22.5t-26 -21t-33.5 -21.5q-13 -5 -29 -10.5t-30 -5.5q-16 0 -24 8q-14 17 -14 46q0 25 8.5 51t19.5 42l197 298h51q-10 -17 -33 -52t-52.5 -79t-62 -93
t-60.5 -93q-6 -9 -14 -21.5t-15.5 -26t-12.5 -26t-5 -20.5q0 -15 7 -21t18 -6q12 0 27 6t28 14q33 20 59.5 48.5t38.5 39.5z" />
    <glyph glyph-name="v" unicode="v" horiz-adv-x="363" 
d="M556 341l-7 8q-19 -13 -38.5 -18.5t-39.5 -5.5q-42 0 -73 27t-31 80q-7 0 -11 -3q0 -72 -21 -132t-54.5 -110t-75 -91t-82.5 -75q-19 -13 -37 -13t-30 11t-12 29q0 29 14.5 63t37 70t49.5 72.5t52.5 71t46 66t28.5 56.5h-47q-21 -39 -54.5 -86t-65 -98.5t-54 -105
t-22.5 -103.5q0 -20 13 -37t38 -17q22 0 47 14q65 49 108 96.5t70 90.5t41 81.5t21 69.5q23 -19 50 -28t54 -9q48 0 85 26z" />
    <glyph glyph-name="w" unicode="w" horiz-adv-x="589" 
d="M810 363l-10 4q-10 -23 -32 -37.5t-48 -14.5q-19 0 -38.5 9t-36 29.5t-28 53.5t-14.5 80l-18 -4q0 -48 -13.5 -97t-34.5 -95.5t-46.5 -88.5t-50.5 -75.5t-45.5 -57t-31.5 -33.5q-21 -18 -38 -25t-30 -7q-17 0 -27.5 11t-17.5 25q-2 3 -2 6v7q0 20 11 44t21 41l192 309
h-43l-204 -313q-20 -30 -45 -61t-50 -48q-11 -7 -23.5 -13t-26.5 -6q-11 0 -21 5t-19 18q-8 11 -8 26q0 13 4.5 26.5t10.5 26t13 23.5t12 18q30 45 61 91t58 86.5t47.5 72t30.5 48.5h-48l-185 -273q-17 -24 -22.5 -47t-5.5 -43q0 -24 8 -43t20 -31q6 -6 16.5 -9t21.5 -3
q15 0 30 4.5t26 11.5q38 26 65 61.5t52 73.5q-8 -18 -13.5 -38t-5.5 -39q0 -28 12 -43q6 -11 22 -20.5t37 -9.5q34 0 68 30q25 22 60.5 65t70 93.5t64.5 101.5t45 89q3 -8 13 -20.5t26 -24t35.5 -20t40.5 -8.5q23 0 45.5 13t42.5 45z" />
    <glyph glyph-name="x" unicode="x" horiz-adv-x="496" 
d="M613 406q0 11 -6.5 20.5t-17.5 13.5q-29 6 -49 6q-18 0 -32 -3.5t-27 -10t-26.5 -15t-29.5 -17.5q-19 -17 -36 -35.5t-37 -48.5q10 19 16 40.5t6 39.5q0 31 -18 40q-12 9 -24 9q-20 0 -38 -13.5t-33 -24.5l8 -7q15 14 30 21t28 7q14 0 22 -7.5t8 -21.5q0 -8 -2.5 -18
t-9.5 -21q-5 -17 -16.5 -40t-27 -49t-32 -52.5t-32 -49.5t-27.5 -40t-18 -24q-77 -93 -127 -93q-30 0 -47 38q-5 15 -5 27q0 22 11.5 40.5t25.5 31.5q26 1 37 11t11 19q0 16 -14 16q-8 0 -17.5 -7.5t-19.5 -27.5q-14 -7 -28 -30.5t-14 -55.5q0 -8 0.5 -16.5t4.5 -17.5
q6 -17 18.5 -27.5t32.5 -10.5q26 0 66 24.5t98 85.5q-3 -20 -3 -41q0 -14 2 -24t8 -15q9 -14 28.5 -24t46.5 -10t60 12q41 19 72.5 38t57 38.5t46.5 39.5t42 41l-7 11q-44 -50 -98 -89t-120 -71q-14 -5 -26 -6.5t-23 -1.5q-25 0 -40.5 9t-20.5 24q-2 10 -2 15q0 17 7.5 33
t16.5 32q23 40 40 74t33.5 64t35 56.5t44.5 49.5q4 8 17.5 18.5t31 20t37 16t36.5 6.5q19 0 32.5 -9.5t16.5 -33.5q9 2 13 8t4 13z" />
    <glyph glyph-name="y" unicode="y" horiz-adv-x="407" 
d="M251 40l-47 -86l146 104l-1 -20l-154 -109l-219 -331q-195 -292 -324 -256q-39 10 -39 65q0 24 7 46q30 109 212 242q131 89 268 189q43 54 117 171q-42 -32 -55 -38t-24 -9t-21 -3.5t-20 -0.5q-35 0 -52 22.5t-17 58.5q0 32 13 72.5t39 82.5l127 207h50l-190 -321
q-10 -13 -13.5 -31.5t-3.5 -30.5q0 -23 13.5 -38.5t38.5 -15.5q28 0 67.5 29t89.5 96l188 312h51q-48 -85 -102 -173.5t-91 -147.5t-54 -86zM66 -169q-131 -75 -238 -160q-163 -133 -191 -232q-6 -20 -5 -37q0 -36 22 -42q60 -17 230 204q100 129 182 267z" />
    <glyph glyph-name="z" unicode="z" horiz-adv-x="300" 
d="M458 469l-8 3q-23 0 -39.5 -17.5t-31 -40t-29.5 -44t-34 -29.5q-5 -2 -12 -4t-15 -2q-20 0 -31 14q-8 9 -10.5 16t-2.5 13q0 4 0.5 7t1.5 7q2 11 13.5 23t19.5 17l-4 11q-8 -2 -19 -10t-17 -19q-5 -11 -8 -18.5t-3 -21.5q-23 -37 -54.5 -75t-63.5 -73.5t-60 -65
t-44 -48.5q2 0 2.5 -1.5t4.5 -1.5q16 20 45 49.5t61 63t62.5 68t49.5 66.5q8 -16 22 -24t31 -8q22 0 45 14l-323 -338h7q11 8 21 16t26 16q11 7 24 11.5t26 4.5q16 0 27 -8q19 -11 26 -23t10 -28q-24 -26 -65.5 -67t-92 -93.5t-105 -113t-104 -124t-88.5 -127.5t-58 -123
q-6 -20 -6 -34q0 -35 29 -35q11 0 28 6t37 20q75 53 132 105.5t104 110.5t87.5 124.5t83.5 146.5q29 54 41.5 97t12.5 75q0 24 -7 43l146 149l-15 -4l-134 -135q-11 34 -35.5 46t-46.5 12q-14 0 -24 -3zM174 -30q0 -30 -11 -68t-43 -95q-36 -63 -72.5 -124t-78 -121
t-89.5 -118t-106 -114q-26 -25 -48.5 -35.5t-36.5 -10.5q-26 0 -26 30q0 14 6.5 33t20.5 42q25 42 66 96.5t88.5 113t98 117.5t96 109.5t81.5 88.5t54 56z" />
    <glyph glyph-name="braceleft" unicode="{" horiz-adv-x="1099" 
d="M1040 167q-27 -40 -63 -69.5t-76.5 -49t-84.5 -29.5t-87 -10q-42 0 -82 9.5t-74.5 28t-61 46t-42.5 63.5q9 -1 17 -1h17q93 0 165 26.5t121 68t74 93t25 102.5q0 26 -6 50t-20 46q54 59 77 117t23 114q0 63 -25.5 118.5t-67.5 98.5q39 40 55.5 81t16.5 80q0 54 -22 96.5
t-58.5 71.5t-85 44.5t-100.5 15.5q-60 0 -113.5 -17.5t-97.5 -53t-77 -88t-52 -121.5q-75 -36 -129 -86t-89 -107.5t-51.5 -121.5t-16.5 -128q0 -88 28.5 -172t81.5 -152.5t128 -115.5t168 -59q16 -38 44.5 -66.5t65.5 -48.5t79.5 -30t87.5 -10q43 0 86.5 10t84 30.5
t75.5 51.5t62 74zM930 1151q0 -41 -16.5 -80.5t-51.5 -74.5q-23 23 -57 48.5t-77.5 46.5t-96 35t-110.5 14q-42 0 -85.5 -8t-89.5 -27q27 67 62.5 113.5t79 75.5t95 42.5t109.5 13.5q44 0 86.5 -13.5t76.5 -39t54.5 -62.5t20.5 -84zM949 766q0 -51 -20.5 -105.5
t-73.5 -111.5q-28 32 -68.5 51t-88.5 19q-32 0 -64.5 -9.5t-64 -30.5t-61 -53.5t-53.5 -78.5q-31 12 -54.5 33t-39 47.5t-23.5 56.5t-8 62q0 49 19.5 95.5t58.5 79.5q40 -42 89 -65t104 -23q19 0 43 3.5t45.5 12.5t36 25t14.5 41q0 27 -16 46t-39.5 31t-50.5 17.5t-48 5.5
q-42 0 -87 -18t-91 -57q-14 19 -26.5 44t-22 52t-15 55t-5.5 54q0 18 3 35q40 17 80.5 24t80.5 7q59 0 114 -12.5t101.5 -31.5t81 -40t51.5 -38q-55 -46 -131 -46q-58 0 -134 24q38 -19 71 -26.5t62 -7.5q51 0 87 16.5t56 31.5q13 -13 28.5 -34.5t28.5 -49t21.5 -61
t8.5 -70.5zM726 811q-1 -21 -13.5 -34.5t-30.5 -21t-38.5 -10t-36.5 -2.5q-54 0 -104.5 23t-87.5 66q42 36 84.5 52t81.5 16q22 0 46.5 -5t45.5 -16t35.5 -28t17.5 -40zM837 534q-17 -16 -44.5 -35t-63.5 -35.5t-78.5 -27.5t-88.5 -11q-23 0 -47.5 3.5t-48.5 11.5
q22 41 50 70t58.5 48t63 27.5t63.5 8.5q44 0 80 -15.5t56 -44.5zM866 439q0 -47 -22 -95t-66 -87t-111.5 -64t-157.5 -25q-11 0 -23 0.5t-24 1.5q-12 26 -19.5 62.5t-7.5 76.5q0 32 6.5 63.5t20.5 56.5q48 -15 96 -15q43 0 85 10t79 26t68 36.5t54 40.5q22 -41 22 -88z
M451 436q-16 -33 -22.5 -65.5t-6.5 -64.5q0 -38 7.5 -72.5t18.5 -63.5q-90 13 -158.5 58t-115 110.5t-70.5 145.5t-24 163q0 65 15.5 129t46.5 120.5t78 103t111 76.5q-1 -8 -1.5 -16t-0.5 -16q0 -36 7 -68t17.5 -59t23 -48.5t23.5 -36.5q-44 -42 -63 -89t-19 -95
q0 -36 9.5 -69t27 -61t42 -49t54.5 -33z" />
    <glyph glyph-name="bar" unicode="|" horiz-adv-x="625" 
d="M960 854h-310q21 27 34.5 51t24 46t20 44t23.5 45h-36q-17 -33 -27 -52.5t-16.5 -31.5t-11.5 -20t-11.5 -17t-15.5 -22t-24 -36q-13 -20 -37.5 -59t-57 -88.5t-73 -105.5t-85 -110t-93 -101.5t-97.5 -80.5h11q27 18 50.5 36.5t46 39.5t45 44.5t47.5 50.5q9 11 20.5 20.5
t22 17.5t19 14t11.5 10l69 91q42 69 79 109.5t75.5 60.5t80 25.5t91.5 5.5h121zM425 36q0 12 -7 22q-14 10 -28 10t-22.5 -10.5t-8.5 -24.5q0 -12 8 -23q14 -10 26 -10q14 0 23 11t9 25z" />
    <glyph glyph-name="braceright" unicode="}" horiz-adv-x="1097" 
d="M46 167q27 -40 63 -69.5t76.5 -49t84.5 -29.5t87 -10q42 0 82 9.5t74.5 28t61 46t42.5 63.5q-9 -1 -18 -1h-16q-93 0 -165 26.5t-121 68t-74 93t-25 102.5q0 26 6 50t20 46q-54 59 -77 117t-23 114q0 63 25.5 118.5t67.5 98.5q-39 40 -55.5 81t-16.5 80q0 54 22 96.5
t58.5 71.5t84.5 44.5t101 15.5q60 0 113.5 -17.5t97.5 -53t77 -88t52 -121.5q75 -36 129 -86t89 -107.5t51.5 -121.5t16.5 -128q0 -88 -28.5 -172t-81.5 -152.5t-128 -115.5t-168 -59q-17 -38 -45 -66.5t-65 -48.5t-79.5 -30t-87.5 -10q-43 0 -86.5 10t-84 30.5t-75.5 51.5
t-62 74zM156 1151q0 -40 16.5 -80t51.5 -75q23 23 57 48.5t77.5 46.5t95.5 35t111 14q42 0 85.5 -8t89.5 -27q-27 67 -62.5 113.5t-79 75.5t-95 42.5t-109.5 13.5q-44 0 -86.5 -13t-76.5 -38t-54.5 -62t-20.5 -84v-2zM137 766q0 -51 20.5 -105.5t73.5 -111.5q28 32 68.5 51
t88.5 19q31 0 64 -9.5t64.5 -30.5t61 -53.5t53.5 -78.5q31 12 54 33t39 47.5t24 56.5t8 62q0 49 -19.5 95.5t-58.5 79.5q-40 -42 -89 -65t-104 -23q-19 0 -43 3.5t-45.5 12.5t-36 25t-14.5 41q0 27 16 46t39.5 31t50.5 17.5t48 5.5q42 0 87 -18t91 -57q14 19 26.5 44t22 52
t15 55t5.5 54q0 18 -3 35q-40 17 -80.5 24t-80.5 7q-59 0 -114 -12.5t-101.5 -31.5t-81 -40t-51.5 -38q55 -46 131 -46q57 0 134 24q-38 -19 -71 -26.5t-62 -7.5q-51 0 -87 16.5t-56 31.5q-13 -13 -28.5 -34.5t-28.5 -49t-21.5 -61t-8.5 -70.5zM360 811q1 -21 13.5 -34.5
t30.5 -21t38 -10t37 -2.5q54 0 104.5 23t87.5 66q-42 36 -84.5 52t-81.5 16q-22 0 -46.5 -5t-45.5 -16t-35.5 -28t-17.5 -40zM249 534q16 -16 44 -35t64 -35.5t78.5 -27.5t88.5 -11q23 0 47.5 3.5t48.5 11.5q-22 41 -50 70t-58.5 48t-63 27.5t-63.5 8.5q-44 0 -80 -15.5
t-56 -44.5zM220 439q0 -47 22 -95t66 -87t111.5 -64t157.5 -25q11 0 23 0.5t24 1.5q12 26 19.5 62.5t7.5 76.5q0 32 -6.5 63.5t-20.5 56.5q-48 -15 -96 -15q-44 0 -85.5 10t-78.5 26t-68.5 36.5t-53.5 40.5q-22 -41 -22 -88zM635 436q16 -33 22.5 -65.5t6.5 -64.5
q0 -38 -7.5 -72.5t-18.5 -63.5q90 13 158.5 58t115 110.5t70.5 145.5t24 163q0 65 -15.5 129t-46.5 120.5t-78 103t-111 76.5q1 -8 1.5 -16t0.5 -16q0 -36 -7 -68t-17.5 -59t-23 -48.5t-23.5 -36.5q44 -42 63 -89t19 -95q0 -36 -9.5 -69t-27 -61t-42 -49t-54.5 -33z" />
    <glyph glyph-name="asciitilde" unicode="~" horiz-adv-x="0" 
d="M490 487l-3 3q-26 -10 -50 -10t-46 7t-43.5 15t-43 15t-44.5 7q-21 0 -44 -8t-49 -29v-7q17 16 34 22t36 6q21 0 43.5 -5.5t46 -12.5t47.5 -12.5t49 -5.5q17 0 33.5 3.5t33.5 11.5z" />
    <glyph glyph-name="florin" unicode="&#x192;" horiz-adv-x="0" 
 />
    <glyph glyph-name="quotedblbase" unicode="&#x201e;" horiz-adv-x="271" 
d="M274 225q0 23 -18 23q-12 0 -24 -8q-17 -14 -29.5 -35t-17.5 -45q0 -30 18 -30q-8 -30 -34 -64t-53 -66q11 7 34.5 28.5t49 51t46.5 63.5t26 67q1 5 1.5 8.5t0.5 6.5zM154 224q0 23 -18 23q-10 0 -24 -11q-17 -14 -29.5 -33.5t-17.5 -46.5q0 -26 18 -26
q-3 -16 -11.5 -32.5t-20.5 -32.5t-25.5 -32.5t-25.5 -32.5q9 7 32 28.5t48 51t46 63.5t26 67q2 10 2 14z" />
    <glyph glyph-name="ellipsis" unicode="&#x2026;" horiz-adv-x="654" 
d="M547 82q0 26 -19 26q-10 0 -23 -10q-20 -14 -28 -33t-8 -33q0 -32 20 -32q9 0 20 7q16 14 23.5 27t12.5 35q1 4 1.5 7t0.5 6zM372 82q0 26 -19 26q-10 0 -23 -10q-20 -14 -28 -33t-8 -33q0 -32 20 -32q9 0 20 7q16 14 23.5 27t12.5 35q1 4 1.5 7t0.5 6zM198 82
q0 26 -19 26q-10 0 -23 -10q-20 -14 -28 -33t-8 -33q0 -32 20 -32q9 0 20 7q16 14 23.5 27t12.5 35q1 4 1.5 7t0.5 6z" />
    <glyph glyph-name="dagger" unicode="&#x2020;" horiz-adv-x="456" 
d="M416 376q0 3 -2 9q0 14 -6.5 22t-11.5 11q-5 7 -13.5 10.5t-18.5 3.5q-14 0 -25.5 -7.5t-11.5 -21.5h-95q33 19 33 53q0 32 -33 82q17 0 25 16.5t8 36.5t-8 36t-25 16h-14q-17 0 -25 -16t-8 -36t8 -36.5t25 -16.5q-33 -51 -33 -84q0 -32 33 -51h-109q0 16 -12.5 22.5
t-26.5 6.5q-18 0 -27 -7q-14 -8 -18 -17t-4 -23q0 -11 3 -19.5t8 -16.5q9 -8 21.5 -11.5t24.5 -3.5q20 0 34 7q4 3 9.5 9.5t13 13.5t19 12t27.5 5l-7 -76q-8 -12 -11.5 -31t-3.5 -43q0 -40 7.5 -92t18 -107.5l21 -111t15.5 -102.5q4 48 15 98.5t21.5 100.5t19 99t8.5 94
q0 27 -3.5 53t-12.5 49l-4 69q16 0 24.5 -4.5t12.5 -10.5t4.5 -11t2.5 -6q8 -5 23.5 -9t32.5 -4q26 0 38 13q13 13 13 27zM232 309v-309l-18 309h18z" />
    <glyph glyph-name="daggerdbl" unicode="&#x2021;" horiz-adv-x="456" 
d="M414 385q0 14 -6.5 22t-11.5 11q-5 7 -13.5 10.5t-18.5 3.5q-14 0 -25.5 -7.5t-11.5 -21.5h-95q33 19 33 53q0 32 -33 82q17 0 25 16.5t8 36.5t-8 36t-25 16h-14q-17 0 -25 -16t-8 -36t8 -36.5t25 -16.5q-33 -51 -33 -84q0 -32 33 -51h-109q0 16 -12.5 22.5t-26.5 6.5
q-18 0 -27 -7q-14 -8 -18 -17t-4 -23q0 -11 3 -19.5t8 -16.5q9 -8 21.5 -11.5t24.5 -3.5q20 0 34 7q4 3 15 9.5t25.5 13.5t31.5 12t34 5l-44 -120q17 -22 26.5 -46t17.5 -52h-77q-16 0 -24 -8t-8 -17q0 -10 8 -18t24 -8q12 0 19.5 5t15 11.5t16.5 11.5t26 5q-8 -49 -16 -81
t-28 -64q4 -4 11.5 -18.5t15 -38.5t13.5 -56.5t7 -72.5q4 37 11.5 69t16 56.5t16 40.5t11.5 20q-20 24 -32 58.5t-12 86.5q16 0 25.5 -5t17 -11.5t15 -11.5t19.5 -5q20 0 29 8t9 18q0 9 -9 17t-29 8h-77l44 98l-44 120q15 0 27.5 -3.5t22 -8.5t16 -10t9.5 -8l2 -2
q8 -5 23.5 -9t32.5 -4q26 0 38 13q5 2 8 9t3 27z" />
    <glyph glyph-name="circumflex" unicode="&#x2c6;" horiz-adv-x="400" 
d="M608 914l-11 8q-30 -31 -58 -54t-57 -41t-59.5 -31t-65.5 -23l13 -8q17 2 35 4.5t37.5 8.5t40.5 16t45 27q8 -14 15.5 -31t21.5 -25q5 0 11 3q-4 14 -8.5 28t-4.5 31q0 19 9.5 40t35.5 47z" />
    <glyph glyph-name="perthousand" unicode="&#x2030;" horiz-adv-x="694" 
d="M661 179q0 17 -4.5 28t-20.5 11q-8 0 -18 -3q-21 -7 -41.5 -21t-39.5 -34q-11 -3 -25 -3q-3 0 -14.5 1.5t-23.5 4.5t-21.5 7.5t-9.5 10.5v19q-2 8 -6 14.5t-16 6.5q-14 0 -40 -11q-20 -8 -46.5 -27.5t-58 -45.5t-68.5 -57t-78 -62l299 458q-30 -24 -66 -24q-35 0 -62 24
q0 17 -4.5 28t-20.5 11q-8 0 -18 -3q-32 -9 -62 -36t-53.5 -59.5t-38 -64.5t-14.5 -51q0 -12 7 -22t24 -10q11 0 24 4.5t29 16.5q45 32 78 79t49 96q20 -8 36.5 -13.5t31.5 -5.5q22 0 41 12l-316 -480l222 185q-11 -15 -26.5 -33t-29 -37.5t-23 -40.5t-9.5 -43q0 -31 32 -31
q34 0 63.5 22.5t53.5 53t41 63t25 53.5q11 -5 31.5 -11t40.5 -6q11 0 16 1q-18 -19 -32.5 -40t-25.5 -41.5t-17 -38.5t-6 -30t7 -22t24 -10q11 0 24 4.5t29 16.5q45 32 78 79t49 96v11zM436 200q0 -19 -14.5 -55t-38 -72t-55 -62.5t-65.5 -26.5q-16 0 -16 19q0 17 13.5 41.5
t33.5 51.5t43.5 53t43.5 47q20 20 37 20q18 0 18 -16zM654 186q-1 -20 -10.5 -44.5t-26 -49t-39 -48.5t-48.5 -43q-28 -20 -46 -20q-15 0 -15 13q0 23 19 59.5t45.5 71t55.5 59.5t49 25q16 0 16 -23zM294 483q-1 -20 -10.5 -44.5t-26 -49t-39 -48.5t-48.5 -43
q-28 -20 -46 -20q-15 0 -15 13q0 23 19 59.5t45.5 71t55.5 59.5t49 25q16 0 16 -23z" />
    <glyph glyph-name="Scaron" unicode="&#x160;" horiz-adv-x="900" 
d="M1353 1162l-6 -9q-31 46 -40 56q-19 13 -59 11q-99 -3 -213 -168q-80 -123 -177 -345q-63 -149 -124 -298q-4 -37 -71 -206q-61 -160 -87 -211q-14 2 -16 15q0 3 10 23q18 32 41 120q26 105 42 245q8 74 18 204q11 148 15 206q-15 -10 -92 -218q-89 -249 -164 -374
q-117 -199 -243 -204q-84 -3 -120 78q-31 69 -20 173q14 128 72 222q63 109 151 113q42 1 72.5 -32.5t35.5 -81.5q4 -18 1 -49q-8 -69 -34 -128q-30 -71 -66 -72l-6 2q76 84 89 195q3 28 3 54q-12 89 -83 86q-79 -3 -142 -116q-57 -99 -70 -217q-23 -214 115 -209
q199 8 478 788q37 115 74 228q47 142 98 205l22 1l7 -10q-64 -81 -76 -120q-16 -66 -26 -152q-7 -65 -14 -182q-7 -128 -11 -179q-2 -19 -28 -198q111 252 223 501q172 352 315 357q96 4 106 -104zM874 504q0 21 5 36.5t13 25t17 13.5t18 4q14 0 27 -15t25 -33.5t25.5 -34.5
t29.5 -16q-2 8 -2 14q0 17 4 32t10.5 25.5t13.5 16.5t15 6q11 0 17 -11.5t6 -25.5q0 -18 -7 -30.5t-17 -20.5t-19 -11.5t-14 -3.5q3 -6 10 -13t21 -7q18 0 36 10.5t35 25.5t35 34t35.5 34.5t35 26t37.5 10.5q14 0 27.5 -7.5t23 -21t15.5 -35t6 -48.5q4 0 9 -6.5t8.5 -14.5
t6.5 -15.5t4 -9.5q1 1 4.5 7t6.5 13t7.5 14t9.5 10q0 27 6 48.5t15.5 35.5t23 21t27.5 7q28 0 55.5 -21.5t53 -48.5t52 -49t53.5 -22q14 0 21 7t10 13q-5 0 -14 4t-19 11.5t-17 20t-7 30.5q0 14 6 25.5t17 11.5q8 0 15 -6t13.5 -16.5t10.5 -25.5t4 -32q0 -6 -2 -14
q17 0 30 16t25 35t25 34t28 15q8 0 17 -4.5t16.5 -14t13 -24.5t5.5 -37q0 -16 -4.5 -27.5t-11.5 -11.5q-5 0 -8.5 7t-3.5 15q0 7 2 12t7 5q4 0 6 -4.5t2 -12.5v-6.5v-5.5q4 3 6 10.5t2 17.5q0 12 -3.5 23t-8 19t-10 11.5t-10.5 3.5q-8 0 -14.5 -3.5t-11.5 -7.5
q-13 -9 -24.5 -21.5t-24 -24t-25.5 -20t-28 -8.5q-4 -18 -15 -26.5t-20 -8.5q-29 0 -57.5 17.5t-56.5 38.5t-57 39t-57 18q-12 0 -21.5 -4t-17.5 -12t-12 -20t-4 -29q7 6 15.5 9t17.5 3q5 0 14 -3t18.5 -11t17.5 -21.5t8 -32.5q0 -13 -3.5 -21.5t-8 -14.5t-9 -8.5t-9.5 -2.5
q-10 0 -19.5 7t-18 18t-15 26.5t-10.5 33.5q-7 -8 -13 -19t-12 -23q4 -13 5 -27t1 -22q0 -10 -2.5 -23t-8.5 -13t-8.5 12.5t-2.5 22.5q0 14 2 28t6 26q-5 10 -11.5 22t-13.5 18q-3 -18 -9.5 -33.5t-15.5 -26.5t-18.5 -18t-19.5 -7q-5 0 -9.5 2.5t-9 8.5t-8 14.5t-3.5 20.5
q0 20 8 33.5t17.5 21.5t19 11t14.5 3q8 0 16.5 -3t15.5 -9q0 17 -4 29t-12 20t-17.5 11.5t-21.5 3.5q-28 0 -57 -17.5t-57 -38.5t-56.5 -39t-57.5 -18q-9 0 -20 8.5t-15 27.5q-15 0 -28 8.5t-25 20t-24 24t-25 21.5q-5 3 -11.5 7t-14.5 4q-5 0 -10.5 -4t-10 -11.5t-8 -18.5
t-3.5 -24q0 -9 2 -16.5t6 -10.5q0 2 -0.5 5.5t-0.5 6.5q0 8 2.5 12.5t6.5 4.5q5 0 6.5 -5t1.5 -12q0 -8 -3 -15t-8 -7q-7 0 -11.5 11.5t-4.5 27.5zM1505 430q0 14 -6.5 25.5t-14 18.5t-16 10t-13.5 3q-10 0 -20.5 -5t-16.5 -11q1 -14 6 -27.5t13 -24t17.5 -17t21.5 -6.5
q4 0 8.5 1.5t9 4.5t8 10t3.5 18zM1268 432q0 -11 3 -18t7.5 -10t9 -4.5t8.5 -1.5q12 0 22 6.5t17.5 17t12 24t6.5 27.5q-6 6 -16 11t-21 5q-5 0 -13.5 -3.5t-16 -10.5t-13.5 -18t-6 -25zM1036 500q0 -9 4 -16q6 2 16 6t18.5 10t14 16t5.5 24q0 7 -4 17t-15 10q-7 0 -13.5 -5
t-12.5 -15t-9.5 -22t-3.5 -25zM1736 498q0 13 -3.5 25t-9.5 22t-12.5 15.5t-13.5 5.5q-6 0 -9.5 -3.5t-6 -7t-3 -9t-0.5 -8.5q0 -14 5.5 -24t14 -16t18 -10t16.5 -6q4 7 4 16zM1376 376q0 -10 3 -16.5t6 -6.5t6 7t3 17q0 15 -2.5 25.5t-5.5 18.5q-6 -17 -8 -27t-2 -18z
M1688 1025q-5 33 -16.5 49t-41.5 11q-15 -2 -33 -10q-59 -23 -108 -74.5t-85.5 -110.5t-56 -114t-16.5 -85q3 -21 19.5 -34t46.5 -8q63 9 110.5 52.5t84.5 100t60.5 114.5t35.5 109zM1672 1040q4 -24 -15.5 -82.5t-55 -121t-86 -113.5t-110.5 -60q-33 -5 -36 19q-2 7 2 21
q27 103 87 191t134 158q21 17 44 20q8 1 20 -3.5t16 -28.5zM1598 1204h-10l-94 -80l-93 80h-11l88 -110h38z" />
    <glyph glyph-name="guilsinglleft" unicode="&#x2039;" horiz-adv-x="490" 
d="M396 188v11l-280 156q41 21 80.5 46.5t73.5 54t60 58.5t40 60h-10q-17 -33 -47 -61.5t-68.5 -54t-83 -48t-89.5 -44.5z" />
    <glyph glyph-name="OE" unicode="&#x152;" horiz-adv-x="1800" 
d="M2074 883q0 6 -0.5 12t-1.5 12v2q-10 63 -48.5 93.5t-93.5 30.5q-48 0 -100 -23.5t-95 -62t-71 -87.5t-28 -100q0 -68 51 -124q-32 0 -62.5 4.5t-58.5 12t-52 16.5t-42 18q12 64 12 117q0 64 -15 112.5t-42 80.5t-63.5 48.5t-79.5 16.5q-35 0 -73 -10.5t-77 -33.5
q-60 0 -132 -23t-150 -74.5t-157.5 -134t-153.5 -201.5q-60 -16 -119 -46t-112.5 -71t-99 -91.5t-78.5 -108.5t-52 -122.5t-19 -131.5q0 -77 26 -144t70.5 -123.5t104.5 -101t128 -75t140 -47t141 -16.5q97 0 187.5 29t160 83.5t111 132.5t41.5 176q0 51 -17.5 98.5
t-59.5 89.5q96 79 160.5 155t107.5 147t67.5 136t39.5 122q48 -20 103.5 -35.5t121.5 -15.5q24 -15 24 -30q0 -16 -31 -26q-67 -21 -130.5 -55.5t-112.5 -81.5t-78.5 -108t-29.5 -135q0 -43 13.5 -78t38 -60t58 -38.5t74.5 -13.5q67 0 127.5 30.5t107 78.5t74 107t27.5 115
q0 7 -0.5 13.5t-1.5 12.5q-7 55 -35.5 80t-66.5 25q-35 0 -70.5 -18.5t-65 -48t-51 -67.5t-27.5 -77h7q8 37 28.5 72t48 62t59 43t63.5 16q40 0 68 -23.5t31 -63.5q1 -7 1.5 -13.5t0.5 -13.5q0 -61 -27.5 -117t-72 -98.5t-100 -67.5t-112.5 -25q-75 0 -113.5 35.5
t-38.5 103.5q0 74 28 136.5t72.5 113t100.5 88t112 61.5q21 9 30 15.5t9 16.5q0 7 -3.5 15.5t-9.5 22.5q37 1 73.5 9t69 20t59.5 26.5t45 27.5q19 14 38 32t34.5 40t25 47t9.5 52zM2063 886q0 -44 -26 -91.5t-74 -78.5q-55 -35 -115 -53.5t-128 -26.5q-8 30 -13.5 56.5
t-5.5 53.5q0 44 16.5 92t46.5 88t71.5 66t91.5 26q25 0 48 -7t41.5 -20.5t30 -34t14.5 -47.5q1 -5 1.5 -11t0.5 -12zM1193 945q0 -17 -10 -39t-34 -48q-36 -38 -108.5 -81t-179.5 -90q76 128 143 202.5t130 110.5q22 0 40.5 -14t18.5 -41zM1442 794q0 -21 -2.5 -43.5
t-7.5 -45.5q-18 9 -36.5 25t-36 35.5t-33.5 42.5t-28 46q-11 27 -25 40.5t-22 13.5q-6 0 -6 -7q0 -8 8.5 -23t29.5 -38q3 -24 3 -50q0 -45 -11 -97t-32 -104t-53 -99.5t-74.5 -84.5t-95 -59t-114.5 -22q-34 0 -58 10t-39 28t-21.5 41.5t-6.5 50.5q0 50 18.5 103.5t47.5 96.5
q41 18 81 36t79 40t77 49.5t76 63.5q29 29 41 56t12 49q0 49 -53 66q25 12 48.5 17.5t46.5 5.5q41 0 75.5 -18t59 -50.5t38.5 -77t14 -97.5zM1101 1000q-99 -53 -172.5 -138t-139.5 -197l-168 -55q46 94 110 167t130.5 122.5t130 75t109.5 25.5zM1429 694
q-14 -49 -42 -116.5t-71.5 -143.5t-103.5 -154.5t-136 -149.5q-21 22 -55 44t-77.5 39.5t-94 28t-104.5 10.5q-55 0 -110 -13t-108 -43q-3 27 -3 54q0 47 7.5 93.5t20 90t28.5 83.5t34 75l164 51q-26 -42 -39 -82t-13 -78q0 -37 12 -69t35.5 -55.5t57 -37t75.5 -13.5
q91 0 163 43.5t122.5 113t77.5 156t27 171.5q0 12 -0.5 25t-1.5 26q22 -49 56 -88t79 -61zM1058 116q-36 -29 -76.5 -52.5t-82.5 -40.5t-83.5 -26t-80.5 -9q-38 0 -72 10t-61 31t-46 54t-26 80q39 30 92.5 43t112.5 13q50 0 100.5 -8.5t94 -22.5t77.5 -32.5t51 -39.5z
M1147 -72q-1 -65 -21 -120t-55 -99.5t-81.5 -79t-100 -58t-111 -35.5t-114.5 -12q-107 0 -211.5 35t-187 100t-133 157.5t-50.5 207.5q0 53 17 109.5t47.5 111t72.5 105.5t91.5 93t104.5 73t112 47q-34 -59 -52.5 -132t-18.5 -145q0 -33 4 -64t12 -59q-32 -23 -55 -59
t-23 -76q0 -28 14 -55.5t46 -52.5q-20 19 -33.5 45.5t-13.5 56.5t16.5 60t56.5 56q18 -47 45 -80.5t60 -55t71.5 -31.5t79.5 -10q42 0 86.5 10t88.5 28t85.5 44t79.5 58q38 -36 54.5 -80.5t16.5 -92.5z" />
    <glyph glyph-name="quoteleft" unicode="&#x2018;" horiz-adv-x="271" 
d="M152 1120q-11 -7 -34.5 -28.5t-48.5 -51.5t-45 -64t-24 -67q0 -21 4 -28.5t12 -7.5q10 0 24 7q16 14 29 34.5t18 45.5q0 11 -4 20t-14 9q3 15 11.5 31t20.5 33t25.5 33.5t25.5 33.5z" />
    <glyph glyph-name="quoteright" unicode="&#x2019;" horiz-adv-x="271" 
d="M154 1141q0 22 -17 22q-11 0 -25 -11q-17 -13 -29.5 -32.5t-17.5 -47.5q0 -25 18 -25q-3 -17 -11.5 -33t-20.5 -32.5t-25.5 -33t-25.5 -32.5q9 7 32 28.5t48 51t46 64t26 67.5q2 10 2 14z" />
    <glyph glyph-name="quotedblleft" unicode="&#x201c;" horiz-adv-x="271" 
d="M272 1120q-11 -8 -34.5 -30t-48.5 -51t-45 -63t-24 -67q-2 -10 -2 -14q0 -21 16 -21q10 0 22 9q17 14 31.5 33.5t19.5 46.5q0 11 -4 18.5t-14 7.5q3 16 11.5 32t20.5 32t25.5 32.5t25.5 34.5zM152 1120q-11 -7 -34.5 -28.5t-48.5 -51.5t-45 -64t-24 -67q0 -21 4 -28.5
t12 -7.5q10 0 24 7q16 14 29 34.5t18 45.5q0 11 -4 20t-14 9q3 15 11.5 31t20.5 33t25.5 33.5t25.5 33.5z" />
    <glyph glyph-name="quotedblright" unicode="&#x201d;" horiz-adv-x="271" 
d="M274 1098q0 22 -18 22q-12 0 -24 -8q-17 -14 -29.5 -34.5t-17.5 -45.5q0 -29 18 -29q-8 -30 -33 -64t-54 -67q11 7 34.5 28.5t49 51t46.5 64t26 67.5q1 5 1.5 8.5t0.5 6.5zM154 1097q0 22 -18 22q-11 0 -24 -10q-17 -14 -29.5 -33.5t-17.5 -46.5q0 -26 18 -26
q-3 -16 -11.5 -32.5t-20.5 -33t-25.5 -33t-25.5 -32.5q9 7 32 28.5t48 51t46 64t26 67.5q2 10 2 14z" />
    <glyph glyph-name="bullet" unicode="&#x2022;" horiz-adv-x="2270" 
d="M2269 0q-51 -29 -131 -29q-79 0 -177.5 25t-204.5 69q-74 30 -166.5 51.5t-187.5 21.5q-75 0 -145 -15.5t-127 -53.5q-52 40 -113 56.5t-127 16.5q-63 0 -128 -12.5t-128.5 -29.5t-124 -36t-113.5 -32q-90 -23 -170 -37.5t-139 -14.5q-58 0 -87 20q18 -18 59.5 -26.5
t97.5 -8.5t119.5 8.5t126.5 22.5q68 15 134.5 35t130.5 37t125 29t120 12q51 0 100 -11.5t96 -39.5q-28 -17 -39 -41t-11 -47q0 -29 12.5 -52.5t29.5 -34.5q-29 -11 -58.5 -16.5t-60.5 -5.5q-65 0 -135 29q-36 15 -81.5 29t-101.5 14q-23 0 -60.5 -6t-73 -19t-61 -32.5
t-25.5 -47.5q0 -33 20 -56.5t49 -38.5t61.5 -22.5t57.5 -7.5q40 0 79 9.5t78 17.5q20 4 48.5 13.5t61.5 18.5t67 16t64 7q23 0 42 -5t33 -17q-10 -10 -14.5 -22t-4.5 -23q0 -14 7 -24.5t19 -10.5q13 2 18.5 12t5.5 25q0 23 -9 47q30 17 64.5 24t65.5 7q17 0 32 -1t27 -5
q27 -8 60 -22.5t69 -29t74 -25t76 -10.5q27 0 58.5 10.5t57.5 27.5t43.5 38.5t17.5 43.5q0 32 -20.5 52.5t-50.5 32.5t-63.5 17t-59.5 5q-34 0 -73 -4.5t-87 -15.5q-29 -7 -55 -16.5t-50.5 -17.5t-47.5 -14t-46 -6q-22 0 -43.5 5.5t-45.5 19.5q33 9 47 30t14 47q0 29 -15 58
t-35 43q54 26 113 37.5t121 11.5q51 0 102.5 -6.5t99.5 -17.5t92.5 -25t82.5 -29q97 -38 185 -57t162 -19q54 0 97.5 10.5t72.5 33.5zM1171 -45q0 -19 -12 -36t-43 -29q-18 9 -31 32.5t-13 50.5q0 22 11 42.5t37 34.5q7 -6 16 -16.5t16.5 -23t13 -27t5.5 -28.5zM1759 -179
q0 -23 -17 -39t-41.5 -26t-51.5 -15t-47 -5q-33 0 -69.5 7.5t-73 18.5t-73 23.5t-70.5 21.5q-13 4 -28 5.5t-32 1.5q-38 0 -75.5 -9.5t-60.5 -30.5q-20 34 -88 34q-44 0 -107 -14t-144 -38q-47 -14 -88.5 -24t-79.5 -10q-21 0 -48 6.5t-50.5 20t-40 33.5t-16.5 46
q0 25 25 42.5t59.5 28.5t69 15.5t54.5 4.5q45 0 88.5 -10t88.5 -29q38 -16 71 -23.5t66 -7.5q32 0 64.5 6.5t71.5 20.5q30 -15 57 -21.5t52 -6.5q26 0 50 5.5t47.5 13.5t47 17t48.5 17q51 11 89 15.5t70 4.5q25 0 56.5 -4.5t59.5 -16t47 -30.5t19 -49zM1123 -285
q0 -9 -3.5 -15t-10.5 -6q-12 7 -12 23q0 10 4.5 20t10.5 15q11 -19 11 -37z" />
    <glyph glyph-name="endash" unicode="&#x2013;" horiz-adv-x="2625" 
d="M0 96q0 -23 13 -39.5t33 -27t43.5 -15.5t44.5 -5q39 0 71.5 17t64 37t64.5 37.5t75 17.5q-3 -8 -3 -15q0 -19 10.5 -35t26.5 -27.5t35.5 -18t36.5 -6.5q31 0 45 12.5t14 27.5q0 20 -18.5 33.5t-42.5 22t-47.5 12.5t-34.5 4q7 6 23.5 14t54.5 8q46 0 91 -11.5t89.5 -28.5
t89 -37t90 -37t92 -28.5t95.5 -11.5q38 0 71.5 8t59 23t40.5 38t15 53q10 0 21.5 7t22 15.5t18 16.5t10.5 11q3 -2 10.5 -8t17 -13.5t21 -15t22.5 -11.5q0 -30 15 -53t40.5 -38t59 -23t71.5 -8q73 0 141.5 24t135.5 53t133.5 53t136.5 24q38 0 54.5 -8t23.5 -14
q-11 0 -34.5 -4t-47.5 -12.5t-42.5 -22t-18.5 -33.5q0 -15 14 -27.5t45 -12.5q17 0 36.5 6.5t35.5 18t26.5 27.5t10.5 35q0 7 -3 15q42 0 75 -17.5t64.5 -37.5t64 -37t71.5 -17q21 0 44.5 5t43.5 15.5t33 27t13 39.5q0 18 -11 30.5t-31 12.5q-13 0 -20.5 -7.5t-7.5 -16.5
q0 -7 5 -13t16 -6t16.5 5.5t5.5 13.5q0 3 -1 7t-3 6q12 -3 17.5 -11t5.5 -19q0 -14 -8 -26t-20.5 -20t-27 -12.5t-27.5 -4.5q-20 0 -36.5 4.5t-30.5 8.5q-30 9 -61 22.5t-62.5 26.5t-65.5 22t-70 9q-13 20 -41.5 29t-50.5 9q-73 0 -146 -19t-145.5 -42t-146 -42t-147.5 -19
q-30 0 -55.5 4t-44.5 12.5t-30 21.5t-11 32q19 -6 40.5 -9.5t44.5 -3.5q12 0 36.5 3.5t49 12t43 23t18.5 36.5q0 13 -7.5 22.5t-18.5 15.5t-24 8.5t-25 2.5q-24 0 -49 -7t-47.5 -19t-39.5 -29t-25 -37q-19 9 -35 21t-31 26q10 13 13 28t3 25q0 11 -6.5 25t-21.5 14
q-14 0 -20.5 -13.5t-6.5 -24.5q0 -16 6 -31t15 -27q-13 -13 -30 -25.5t-35 -19.5q-8 20 -25 37t-39.5 29t-47.5 19t-49 7q-12 0 -25 -2.5t-24 -8.5t-18.5 -15.5t-7.5 -22.5q0 -22 18.5 -36.5t43 -23t49 -12t36.5 -3.5q23 0 44.5 3.5t40.5 9.5q0 -19 -11 -32t-30 -21.5
t-44.5 -12.5t-55.5 -4q-74 0 -147.5 19t-146 42t-145.5 42t-146 19q-22 0 -50.5 -9t-41.5 -29q-36 0 -70 -9t-65.5 -22t-62.5 -26.5t-61 -22.5q-14 -4 -30.5 -8.5t-36.5 -4.5q-13 0 -27.5 4.5t-27 12.5t-20.5 20t-8 26q0 11 5.5 19t17.5 11q-2 -2 -3 -6t-1 -7
q0 -8 5.5 -13.5t16.5 -5.5t16 6t5 13q0 9 -7.5 16.5t-20.5 7.5q-20 0 -31 -12.5t-11 -30.5zM1617 177q0 -16 -15 -28t-35.5 -19.5t-41.5 -11t-34 -3.5q-26 0 -52.5 5.5t-44.5 11.5q4 15 17.5 30t33 26.5t45 18.5t54.5 7q9 0 21.5 -1.5t24 -5t19.5 -11t8 -19.5zM1010 175
q0 12 8 19.5t19.5 11t24 5t21.5 1.5q29 0 54.5 -7t45 -18.5t32.5 -26.5t18 -30q-18 -6 -44.5 -11.5t-52.5 -5.5q-13 0 -34 3.5t-41.5 11t-35.5 19.5t-15 28zM416 101q0 10 8 17q19 -2 43.5 -6t46 -11t36 -18t14.5 -26q0 -7 -9 -18.5t-40 -11.5q-16 0 -33.5 6t-32 16.5
t-24 23.5t-9.5 28zM2211 103q0 -15 -9.5 -28t-24 -23.5t-32 -16.5t-33.5 -6t-25.5 3.5t-15 8t-7 10t-1.5 8.5q0 15 14.5 26t36 18t45.5 11t44 6q8 -7 8 -17zM1289 236q0 11 7.5 18.5t14.5 7.5q8 0 15 -8t7 -19q0 -17 -6.5 -28.5t-13.5 -19.5q-14 19 -19 29t-5 20z" />
    <glyph glyph-name="emdash" unicode="&#x2014;" horiz-adv-x="2625" 
d="M2631 170q0 16 -8 32t-27 27q-21 13 -42.5 17.5t-42.5 4.5q-17 0 -32.5 -3t-28.5 -8q-29 -10 -55.5 -25t-53.5 -29t-56.5 -24t-63.5 -10q2 8 2 13q0 13 -6.5 26t-17.5 24t-26 18t-32 7q-11 0 -25.5 -1t-27.5 -4t-21.5 -8.5t-8.5 -14.5q0 -10 11 -20q30 -27 64.5 -39
t69.5 -12q-8 -15 -26 -21.5t-41 -6.5q-22 0 -47.5 4.5t-52.5 11.5t-54.5 15.5t-51.5 15.5q-60 17 -120 39t-123 44q-28 10 -57 14.5t-57 4.5q-37 0 -70.5 -8t-58.5 -23t-40 -37.5t-15 -52.5q-22 -8 -42.5 -23t-34.5 -35q-17 20 -35.5 35t-40.5 23q0 30 -15 53t-40.5 38
t-59.5 23t-72 8q-26 0 -53.5 -4.5t-54.5 -11.5q-34 -9 -65.5 -20.5t-61.5 -23.5t-59 -23.5t-57 -19.5q-25 -7 -52.5 -15.5t-54.5 -15.5t-52.5 -11.5t-47.5 -4.5q-23 0 -40.5 6.5t-25.5 21.5q35 0 68 12t63 39q12 12 12 22q0 15 -25 22t-56 7q-36 -5 -61.5 -28t-25.5 -48
q0 -8 3 -15q-34 0 -63 10.5t-55.5 25.5t-52.5 30.5t-54 24.5q-11 3 -23 5t-26 2q-22 0 -45.5 -5.5t-47.5 -19.5q-20 -14 -28 -30t-8 -32q0 -20 11.5 -33.5t31.5 -13.5q12 0 18.5 8t6.5 18q0 8 -5 14t-16 7q-11 0 -16 -6t-5 -14q0 -9 6 -13q-26 7 -26 32q0 13 8.5 26t25.5 22
q24 14 48 14q18 0 34 -5t30 -9q30 -9 61 -21t63 -22.5t65 -18t69 -7.5q14 -25 44.5 -35t69.5 -10q42 0 89 9t92 22l240 69q35 10 72 14.5t71 4.5q30 0 55.5 -4t44.5 -12.5t30 -21.5t11 -32q-18 5 -40 9t-46 4q-35 0 -70 -10t-66 -36q-18 -17 -18 -33q0 -14 10 -25.5
t26 -17.5q9 -4 19 -5t21 -1q25 0 51 7t49.5 19.5t41 29.5t25.5 37q20 -5 39.5 -19t33.5 -28q-18 -29 -18 -50q0 -23 22 -26q26 3 26 29q0 21 -19 47q7 7 16 14.5t19.5 14.5t21 12t19.5 6q8 -20 25.5 -37t41 -29.5t49.5 -19.5t51 -7q23 0 41 6q15 7 25 18t10 25q0 19 -17 33
q-33 28 -68 37.5t-67 9.5q-24 0 -46 -4t-41 -10q0 37 39 53t96 16q35 0 73 -6t76 -16l243 -65q45 -12 92.5 -21.5t89.5 -9.5q39 0 69 10t44 35q37 0 70.5 8t65 19t61.5 22.5t61 19.5q12 5 26 8.5t31 3.5q13 0 27 -3.5t29 -11.5q14 -8 22.5 -21.5t8.5 -26.5q0 -22 -24 -29
q6 4 6 13q0 8 -5 14t-16 6t-16.5 -7.5t-5.5 -15.5q0 -9 6 -16.5t20 -7.5q20 0 33 16t13 38zM2213 165q0 -7 -3 -13q-45 0 -81.5 13.5t-52.5 26.5q-9 9 -9 16q0 6 7 10t18 6.5t24 3.5t25 1q17 0 30.5 -6t22.5 -15.5t14 -21t5 -21.5zM1628 81q0 -23 -32 -34q-19 -4 -40 -4
q-30 0 -56.5 7.5t-47 19.5t-34.5 27t-18 30q20 5 44 11.5t53 6.5q26 0 54 -7.5t59 -28.5q18 -12 18 -28zM1324 30q0 -10 -3.5 -16.5t-11.5 -6.5q-14 1 -14 17q0 9 4.5 21t12.5 24q12 -17 12 -39zM1225 127q-5 -15 -18.5 -30t-34 -27t-47 -19.5t-56.5 -7.5q-21 0 -40 4
q-32 11 -32 34q0 15 17 28q29 20 56.5 28t53.5 8q29 0 55 -6.5zM558 213q0 -7 -9 -17q-16 -16 -52 -30t-79 -14q-8 7 -8 17q0 19 22.5 39t54.5 24q32 0 51.5 -4t19.5 -15z" />
    <glyph glyph-name="tilde" unicode="&#x2dc;" horiz-adv-x="654" 
d="M490 487l-3 3q-26 -10 -50 -10t-46 7.5t-43.5 17t-43 17t-44.5 7.5q-42 0 -93 -42v-7q17 16 34 22t36 6q21 0 43.5 -5.5t46 -12.5t47.5 -12.5t49 -5.5q17 0 33.5 3.5t33.5 11.5z" />
    <glyph glyph-name="scaron" unicode="&#x161;" horiz-adv-x="368" 
d="M461 189l-7 7q-26 -40 -60 -69t-66 -48.5t-56 -29t-29 -9.5q39 17 66.5 64t27.5 120q0 51 -18 106t-61 106l3 11h-21q-23 -34 -52.5 -83t-63.5 -99.5t-71 -96.5t-75 -74l11 -7q31 19 65.5 59.5t68.5 90.5t66 103.5t58 99.5q9 -9 18 -27t16.5 -42.5t12.5 -54t5 -60.5
q0 -41 -13 -85t-40.5 -80t-70.5 -59.5t-103 -23.5q-25 0 -38.5 12.5t-23.5 29.5q-5 13 -10 13q-4 0 -4 -20q12 -31 41 -37t72 -6q49 0 98 10t94.5 32.5t86 58.5t73.5 88zM357 610h-10l-94 -80l-93 80h-11l88 -110h38z" />
    <glyph glyph-name="guilsinglright" unicode="&#x203a;" horiz-adv-x="490" 
d="M400 366q-37 12 -79 30.5t-82 43.5t-74 58.5t-56 75.5h-11q18 -33 42.5 -66t57 -62.5t73 -53t89.5 -37.5l-288 -156v-11z" />
    <glyph glyph-name="oe" unicode="&#x153;" horiz-adv-x="518" 
d="M611 423q0 26 -37 26q-10 0 -21.5 -2t-25.5 -7q-42 -16 -89.5 -55.5t-99.5 -108.5q8 12 15 26.5t11.5 30.5t7 31t2.5 27q0 16 -4 23q-5 14 -14 24t-29 10q-11 0 -26.5 -4t-35.5 -15q-44 -24 -83.5 -58.5t-72.5 -76t-58.5 -89.5t-40.5 -100q-8 -30 -8 -49q0 -55 49 -55
q28 0 65 17q37 22 66 47t52 51.5t40 52.5t31 49q-14 -30 -22.5 -61t-8.5 -67q4 -51 22.5 -71.5t50.5 -20.5q14 0 30 4t33 12q30 11 59.5 26.5t55.5 33.5t48 37.5t37 37.5l-3 14q-44 -47 -90.5 -80t-109.5 -58q-33 -13 -56 -13q-24 0 -35 13t-11 36q0 21 6 41.5t15 40
t20 38.5t21 37q5 3 10 5.5t10 5.5q37 21 68.5 39.5t58.5 38t49 41t40 48.5q8 13 8 27zM597 423q0 -19 -37 -56q-36 -35 -83.5 -68t-102.5 -63q25 55 56 99t86 79q43 22 64 22q17 0 17 -13zM360 407q0 -44 -19 -95t-52 -102.5t-76.5 -98.5t-92.5 -82q-19 -14 -36.5 -19.5
t-31.5 -5.5q-15 0 -23 8.5t-8 30.5q0 31 25.5 78t63.5 98.5t81.5 101t80.5 86.5q17 17 31.5 24t25.5 7q14 0 22.5 -9.5t8.5 -21.5z" />
    <glyph glyph-name="Ydieresis" unicode="&#x178;" horiz-adv-x="600" 
d="M1139 1016q0 36 -32 36q-18 0 -45 -15t-59 -48q-71 -72 -145 -166.5t-146 -197.5t-140.5 -208t-128.5 -199q-31 -27 -70 -63t-83.5 -69t-92 -55.5t-96.5 -22.5q-30 0 -49.5 14t-19.5 47q0 13 8 33t21.5 43.5t30.5 49.5t35 52q57 85 115.5 163t106 151.5t77.5 143.5
t30 140q0 43 -14.5 80.5t-43.5 65.5t-73 44t-103 16q-60 0 -128 -22t-135.5 -59.5t-129.5 -88t-109.5 -108t-76 -119t-28.5 -120.5q0 -42 13 -74.5t36.5 -54.5t56 -33t70.5 -11q49 0 90.5 16.5t74.5 43t57.5 59.5t41 65.5t24.5 61.5t8 47q0 35 -23 57.5t-57 22.5
q-19 0 -39.5 -8t-40.5 -28q37 30 71 30q30 0 48.5 -21.5t18.5 -52.5q0 -57 -24.5 -108.5t-64 -90.5t-89.5 -62t-101 -23q-68 0 -110 40t-42 112q0 59 27 120.5t72 119t104.5 108t125 88t133 59t128.5 21.5q47 0 84.5 -15t63 -41.5t39 -62t13.5 -75.5q0 -67 -34 -136.5
t-84 -140.5t-107.5 -142.5t-104.5 -141.5q-38 -56 -66 -110.5t-28 -114.5q0 -16 8 -27.5t20.5 -18.5t29 -10.5t34.5 -3.5q48 0 91.5 16t83.5 41.5t76.5 57t70.5 61.5l-225 -345q-12 1 -24 1h-25q-52 0 -140 -12.5t-197 -37.5t-231 -63t-242 -89.5t-229 -117t-192.5 -145
t-133 -174t-49.5 -203.5q0 -69 54 -109.5t148 -40.5q47 0 100.5 11.5t116.5 33.5q126 43 242.5 112t221.5 152t197.5 174.5t171 180t142 168.5t109.5 140q102 -1 185 -28.5t142.5 -77t92 -117.5t32.5 -149q0 -90 -42.5 -168t-110.5 -135t-153.5 -89.5t-172.5 -32.5
q-42 0 -87.5 10.5t-84 33.5t-63 59t-24.5 87q0 23 6.5 47t20.5 48q-17 -21 -24.5 -46.5t-7.5 -51.5q0 -55 24 -94t63.5 -63.5t90.5 -36t104 -11.5q60 0 119.5 13.5t113.5 39.5t100 63t80 84.5t53 104t19 121.5q0 85 -30.5 157t-89.5 125.5t-146.5 85t-202.5 36.5
q87 115 162 234t154 239q83 73 159.5 152t144 157t125 151.5t102.5 135.5q56 78 56 122zM1127 1010q0 -17 -11 -45t-40 -64q-64 -82 -124 -157.5t-120 -145t-122 -133.5t-129 -124q46 75 95.5 153.5t104 159.5t115 163t129.5 164q23 28 44 42t35 14q23 0 23 -27zM178 -186
q-53 -73 -118.5 -158t-143 -173.5t-166 -175.5t-186 -164.5t-204 -140t-219.5 -101.5q-63 -22 -114.5 -34t-94.5 -12q-88 0 -132 40t-44 102q0 108 49.5 200.5t133.5 170t193.5 140.5t230 112.5t243.5 85.5t232.5 60t198.5 35.5t141 12.5zM848 1203q0 9 -5 13t-13 4
q-12 0 -22 -6q-28 -16 -38.5 -33t-12.5 -28q0 -20 3.5 -27.5t13.5 -7.5q2 0 12 2q22 14 37.5 30t20.5 35q4 9 4 18zM724 1206q0 17 -17 17q-9 0 -19 -5q-52 -28 -62 -65q-2 -8 -2 -12q0 -24 20 -24q7 0 18 6q22 14 37.5 33t20.5 33q4 8 4 17z" />
    <glyph glyph-name="cent" unicode="&#xa2;" horiz-adv-x="289" 
d="M432 563l-80 -116q-14 0 -27.5 -2.5t-23.5 -4.5q-50 -15 -94 -46t-78.5 -69t-59.5 -79.5t-37 -78.5q-7 -21 -11 -41t-4 -39q0 -25 8 -45.5t25 -34.5l-61 -91l14 -4l62 88q20 -5 39 -5q14 0 28.5 2.5t30.5 9.5q66 19 120 59.5t84 100.5h-15q-11 -22 -29.5 -44.5t-45 -43.5
t-61.5 -38t-78 -27q-8 -2 -15 -3.5t-14 -1.5q-18 0 -33 9l280 411q5 -5 9.5 -14.5t4.5 -18.5q0 -16 -8 -25t-31 -27l-4 -3l3 -7q24 17 40.5 33.5t16.5 36.5q0 9 -2 14q-5 11 -10.5 14t-7.5 11l54 80zM341 432l-276 -407q-8 9 -10.5 20t-2.5 22q0 20 6 38q12 33 33.5 73.5
t49.5 81.5t60 78t64 62q20 15 37 23.5t39 8.5z" />
    <glyph glyph-name="sterling" unicode="&#xa3;" horiz-adv-x="2000" 
d="M3041 1263q-1 69 -30 121t-77 86t-111 51t-133 17q-85 0 -177 -23t-183 -65q-122 -56 -229 -136.5t-203 -180t-184 -214.5t-173 -239h-578v-30h557q-48 -65 -113 -137.5t-142 -141t-164 -126t-178 -93.5q-65 32 -144 61t-166.5 51t-181 35t-188.5 13q-55 0 -95.5 -10.5
t-67.5 -27.5t-40 -39.5t-13 -46.5q0 -38 29 -71t77 -57t111 -38t132 -14q79 0 154 11.5t140.5 28t118 34.5l87.5 30q103 -54 201 -83.5t191 -29.5q106 0 200 44t175 142q-70 -66 -150 -94t-170 -28q-85 0 -175.5 21t-187.5 54q110 48 201 111.5t165 132.5t132.5 138.5
t104.5 129.5h509l15 30h-502q48 62 98 129.5t103.5 135.5t112 135t124 128t139.5 114.5t158 95.5q97 48 192 73.5t182 25.5q64 0 122 -13.5t101.5 -41.5t69 -70.5t25.5 -100.5q0 -60 -26 -122.5t-71 -121.5t-105 -111t-129 -91t-142.5 -61.5t-144.5 -22.5q-48 0 -86.5 8.5
t-65.5 27.5t-42 49t-15 73q0 57 32 116.5t103 116.5q-45 -33 -74 -65.5t-46 -62.5t-23.5 -58t-6.5 -52q0 -54 22 -92t58 -63t83 -36.5t98 -11.5q75 0 149 22t142 61t126 92t101 114t67.5 128.5t24.5 134.5zM847 123q-25 -9 -69 -25t-104 -31.5t-135 -27.5t-163 -12
q-64 0 -123 13t-104 35.5t-72 52.5t-27 63q0 21 11.5 40t35.5 34t60.5 24t85.5 9q93 0 175.5 -15.5t157.5 -40.5t142 -56.5t129 -62.5z" />
    <glyph glyph-name="currency" unicode="&#xa4;" horiz-adv-x="438" 
d="M311 222v15h-189q5 8 9 14h180v15h-171q22 32 46.5 62.5t49.5 54t50.5 37.5t48.5 14q18 0 26.5 -10.5t8.5 -27.5h18q0 4 -0.5 11t-2.5 11q-6 14 -14.5 21t-27.5 7q-8 0 -18 -1t-24 -5q-67 -20 -126 -67.5t-98 -106.5h-49v-15h40l-8 -14h-32v-15h24q-17 -34 -26 -68
t-9 -64q0 -39 18.5 -65.5t63.5 -26.5q42 0 82 13t75 36t63.5 54t47.5 66h-15q-10 -20 -32.5 -47t-55 -51.5t-72.5 -41.5t-85 -17q-28 0 -41.5 15.5t-13.5 41.5q0 24 18 65.5t44 89.5h197z" />
    <glyph glyph-name="yen" unicode="&#xa5;" horiz-adv-x="1374" 
d="M1650 1010l-3 11q-222 -103 -338 -214q-59 83 -127.5 141.5t-143.5 95t-153.5 53.5t-155.5 17q-72 0 -141.5 -13.5t-132 -37.5t-116.5 -58t-96 -75q-30 -30 -57.5 -67t-48 -77.5t-32.5 -84t-12 -86.5q0 -69 35.5 -126.5t91 -99t122 -65t128.5 -23.5q42 0 92 8.5t99.5 26
t95.5 45.5t81.5 67t57 90t21.5 115q0 45 -15 81t-42.5 61.5t-65 39t-82.5 13.5q-54 0 -104.5 -18t-93.5 -49t-76.5 -73t-52.5 -90h4q19 41 52.5 80.5t76.5 70t91.5 49t96.5 18.5q43 0 80 -12.5t64 -36t42.5 -57t15.5 -76.5q0 -52 -19.5 -97.5t-52.5 -83.5t-76.5 -68
t-91.5 -50.5t-97.5 -31.5t-93.5 -11q-53 0 -109.5 19.5t-103 56t-76 89.5t-29.5 120q0 42 9 85t25.5 83.5t38.5 76t48 63.5q94 100 203 143.5t220 43.5q92 0 180.5 -25t166 -66.5t139.5 -96t101 -112.5q-93 -89 -153.5 -173.5t-105 -160.5t-81 -141t-81.5 -114
q-22 -24 -54.5 -55.5t-69.5 -61t-74.5 -53.5t-70.5 -33q-34 8 -85 25t-112.5 34t-131 30t-141.5 13q-17 0 -40.5 -1.5t-45.5 -6.5t-37.5 -15.5t-15.5 -28.5q0 -23 20 -39.5t51 -27.5t70 -18t77.5 -11t71.5 -5t54 -1q61 0 124.5 8.5t129.5 28.5q49 -14 97 -20.5t94 -6.5
q88 0 168 21t148 59t122.5 91t93 116t59.5 134.5t21 147.5q0 74 -16.5 133.5t-48.5 117.5q66 74 150.5 134t172.5 98zM1374 523q0 -13 -1 -26t-3 -25q-17 -90 -65 -180t-123.5 -161.5t-177.5 -116t-228 -44.5q-42 0 -82 5.5t-76 16.5q48 18 86 36.5t69.5 37.5t59 39.5
t54.5 43.5q66 55 119.5 132t102 161t97.5 166t106 148q12 -21 23.5 -47.5t20 -57t13.5 -63.5t5 -65zM574 -8q-64 -18 -125.5 -26t-120.5 -8q-19 0 -51 1t-68 4.5t-73 10t-66.5 16.5t-48.5 24t-19 34q0 16 15 25t35.5 13.5t41.5 5.5t33 1q100 0 209.5 -29.5t237.5 -71.5z" />
    <glyph glyph-name="brokenbar" unicode="&#xa6;" horiz-adv-x="420" 
d="M965 -1047q0 163 -70.5 289.5t-197.5 217t-305 145.5t-392 75q56 76 121 167.5t131 191t130.5 203.5t118.5 205h-47l-22 -33q-7 18 -22.5 25.5t-34.5 7.5q-37 0 -77.5 -16.5t-79 -43.5t-73.5 -62.5t-61.5 -74.5t-42 -78.5t-15.5 -73.5q0 -18 3 -35.5t11 -32t21.5 -23
t34.5 -8.5q38 0 70.5 24t58.5 53q-37 -49 -71 -97.5t-68 -97.5t-69.5 -98t-75.5 -100q-132 -2 -272.5 -11.5t-278.5 -30t-268.5 -52t-241.5 -77.5q-25 37 -66.5 66t-96 49.5t-120.5 31.5t-139 11q-108 0 -229 -31.5t-239.5 -87t-227 -132.5t-191 -167.5t-131.5 -191.5
t-49 -205q0 -61 23.5 -119.5t67 -111t103.5 -97.5t133.5 -77.5t157.5 -51t175 -18.5q178 0 355.5 53t351 145.5t340.5 216.5t322.5 266t298 294.5t266.5 302.5q222 -18 395 -74.5t292.5 -145.5t181.5 -207.5t62 -259.5q0 -100 -30.5 -190.5t-84.5 -168.5t-128.5 -141.5
t-162 -108t-186 -69t-199.5 -24.5q-57 0 -119 10t-122 31t-114.5 53t-95.5 77t-65 102.5t-24 128.5q0 52 20 98.5t53.5 85.5t79 70t96.5 52.5t105.5 33t105.5 11.5q57 0 109 -11t94.5 -30t73 -45t45.5 -56q-13 29 -42.5 56t-72.5 47.5t-97.5 33t-117.5 12.5
q-82 0 -166.5 -25t-153.5 -71.5t-112.5 -113t-43.5 -150.5q0 -71 24.5 -130t66 -106.5t96.5 -83.5t117 -60t126.5 -36t125.5 -12q97 0 197.5 24.5t194.5 69.5t176.5 109t144.5 143t98 171.5t37 194.5zM417 397q0 -7 -3 -16l-185 -283q-8 -12 -21.5 -28t-31 -30.5
t-37.5 -24.5t-41 -10q-11 0 -18.5 6t-12 15.5t-6 21.5t-1.5 23q0 32 16 71t42.5 79.5t60 78.5t68 67.5t67.5 47.5t59 18q20 0 32 -9.5t12 -26.5zM-77 -339q-56 -66 -132 -155t-169.5 -190.5t-203 -209t-231.5 -209.5t-255 -193t-274 -159.5t-289 -108.5t-299 -40
q-89 0 -171.5 18.5t-155 51t-131.5 76.5t-101.5 95.5t-66 107.5t-23.5 112q0 99 46 195.5t124 183.5t179.5 161.5t213.5 128.5t226 84.5t216 30.5q76 0 142.5 -11.5t120 -31.5t91.5 -46.5t56 -57.5q-86 -39 -181 -84.5t-185.5 -98.5t-169 -116t-130.5 -137
q-26 -36 -36 -67.5t-10 -57.5q0 -33 16 -55t40.5 -35.5t55 -19.5t59.5 -6q58 0 126 19.5t136.5 55t132 86t112.5 112t78.5 132.5t29.5 148q0 31 -5.5 62t-17.5 62q155 58 303.5 91.5t282.5 50t248.5 21t201.5 4.5zM-1135 -631q-4 -52 -27 -112t-62 -119t-91.5 -113.5
t-114.5 -96t-131 -66.5t-141 -25q-22 0 -49 4t-50 14t-39 28t-16 47q0 26 12.5 57t39.5 67q46 60 118 118t158.5 111.5t182 102.5t188.5 91q11 -20 16.5 -47.5t5.5 -60.5z" />
    <glyph glyph-name="section" unicode="&#xa7;" horiz-adv-x="269" 
d="M290 215q0 19 -3 39q-4 37 -23.5 84t-43 95t-45.5 91t-30 72q11 14 26 43t18 59q3 12 4 23.5t1 22.5q0 12 -2 29.5t-7.5 34t-16 28.5t-27.5 12q-15 0 -26 -11.5t-17.5 -28t-10 -35t-3.5 -33.5q0 -21 3 -43t7.5 -42t9 -37t8.5 -29q-5 -2 -6 -2h-1l-4 -2q-15 48 -23.5 94.5
t-8.5 88.5q0 50 13.5 90.5t44.5 68.5l-4 3q-20 -14 -33 -35.5t-21 -48t-11.5 -56t-3.5 -59.5q0 -45 6.5 -85t15.5 -65q-29 0 -43 26t-14 63q0 20 4 40.5t13 38.5q0 2 -2 2.5l-2 0.5q-9 -16 -14.5 -40.5t-5.5 -50.5q0 -18 3 -33.5t10.5 -28t20.5 -20.5t34 -9q8 -26 24.5 -61
t36 -76.5t39 -87t34.5 -91.5q8 -24 14 -51.5t6 -56.5q0 -17 -2.5 -34.5t-10.5 -35.5q0 -3 2 -3.5l2 -0.5q26 40 26 101q0 20 -2 42t-9 46q-12 42 -28.5 81.5t-35.5 78t-37.5 76.5t-33.5 77l11 4q9 -30 30 -72.5t43 -88t40.5 -90.5t24.5 -80q3 -18 5 -36.5t2 -36.5
q0 -27 -6.5 -54.5t-20.5 -49.5t-35 -36t-49 -14q-32 0 -56.5 16.5t-41.5 42t-25.5 56t-8.5 59.5q0 19 3.5 39.5t12 37t22 27.5t34.5 11q18 0 32 -11t23.5 -27t14.5 -35t5 -34q0 -22 -6.5 -44t-17.5 -42l4 -4q14 19 20.5 40.5t6.5 44.5q0 21 -5.5 42.5t-16 39t-26.5 28.5
t-37 11q-22 0 -38 -13t-26 -33t-15 -43t-5 -44q0 -36 9 -69t27 -58.5t44 -41t61 -15.5q43 0 70 20.5t43.5 52t23.5 69.5t9 72zM180 739q0 -37 -10 -70t-32 -59q-14 38 -22 74.5t-8 74.5q0 8 2 19t6 20.5t10.5 16t16.5 6.5q13 0 20 -9t10.5 -21.5t4.5 -27t2 -24.5z" />
    <glyph glyph-name="dieresis" unicode="&#xa8;" horiz-adv-x="312" 
d="M578 610q0 9 -5 13t-13 4q-12 0 -22 -6q-28 -16 -38.5 -33t-12.5 -28q0 -20 3.5 -27.5t13.5 -7.5q2 0 12 2q22 14 37.5 30t20.5 35q4 9 4 18zM454 613q0 17 -17 17q-9 0 -19 -5q-52 -28 -62 -65q-2 -8 -2 -12q0 -24 20 -24q7 0 18 6q22 14 37.5 33t20.5 33q4 8 4 17z" />
    <glyph glyph-name="guillemotleft" unicode="&#xab;" horiz-adv-x="654" 
d="M570 14v11l-280 156q41 21 80.5 46.5t73.5 54t60 58.5t40 60h-10q-17 -33 -47 -61.5t-68.5 -54t-83 -48t-89.5 -44.5zM396 14v11l-280 156q41 21 80.5 46.5t73.5 54t60 58.5t40 60h-10q-17 -33 -47 -61.5t-68.5 -54t-83 -48t-89.5 -44.5z" />
    <glyph glyph-name="logicalnot" unicode="&#xac;" horiz-adv-x="750" 
d="M287 465q38 25 76.5 58.5t76.5 65.5q64 54 115 104t90.5 100.5t67.5 102t47 107.5q4 11 5 20t1 17q0 35 -31 35q-20 0 -48 -14t-59.5 -39.5t-63.5 -60t-59 -74.5q-36 -54 -67.5 -101.5t-61 -94t-58.5 -94t-61.5 -100.5t-69.5 -113.5t-82 -133.5q-35 -58 -53.5 -98
t-18.5 -75q0 -21 7 -41q11 -21 25.5 -28.5t31.5 -7.5q26 0 48 10q41 19 75 50.5t60.5 71t44.5 84t27 89.5q5 25 6.5 39.5t1.5 25.5q5 -4 14.5 -10.5t21 -13t24 -11.5t23.5 -5q31 0 63 6.5t60 17.5t51 25.5t37 30.5q9 7 14 11.5t9.5 8.5t10.5 9.5t17 14.5q0 -57 -4 -96.5
t-11 -74.5q-6 -33 -21.5 -71.5t-39.5 -76t-57 -70t-75 -51.5q-8 -4 -17.5 -6.5t-20.5 -2.5q-13 0 -25.5 4t-23.5 9q-11 6 -15 16.5t-7 15.5q-5 13 -11 13t-6 -9q0 -5 3 -11q2 -8 12.5 -19t27.5 -17q14 -5 33.5 -6t38.5 -1q49 1 99 22.5t95.5 53t85 67t66.5 64.5v11
q-10 -8 -29.5 -27.5t-46 -42.5t-57.5 -45.5t-64 -37.5q45 53 73 122.5t28 154.5q0 30 -4 61.5t-13 65.5l18 18l-14 11q-17 -21 -27.5 -33.5t-18 -20.5t-14 -13.5t-16.5 -12.5q-10 -10 -28.5 -22.5t-43.5 -24t-56.5 -19t-68.5 -7.5q-22 2 -40.5 11.5t-32 21.5t-22.5 25.5
t-13 24.5q5 -20 5 -48q0 -19 -2.5 -38.5t-6.5 -36.5q-7 -34 -24 -75.5t-41.5 -82t-57 -75t-70.5 -54.5q-9 -4 -18.5 -6.5t-18.5 -2.5q-10 0 -18.5 3.5t-13.5 12.5q-10 11 -10 33q0 28 17 62q22 43 49.5 89t55.5 91t54 87t45 78zM301 490q15 24 39 63t53 86t62 99t67 102.5
t67.5 95.5t64.5 78q30 32 51 43.5t32 11.5q9 0 12.5 -6.5t3.5 -15.5q0 -18 -8 -37q-27 -61 -68 -127t-96.5 -132.5t-125 -133t-154.5 -127.5zM341 432q0 -3 1 -4q-1 1 -1 4z" />
    <glyph glyph-name="FL0173" unicode="&#xad;" horiz-adv-x="700" 
d="M610 410q9 7 14 11.5t9.5 8.5t10.5 9.5t17 14.5q0 -57 -4 -96.5t-11 -74.5q-6 -33 -21.5 -71.5t-39.5 -76t-57 -70t-75 -51.5q-8 -4 -17.5 -6.5t-20.5 -2.5q-13 0 -25.5 4t-23.5 9q-11 6 -15 16.5t-7 15.5q-5 13 -11 13t-6 -9q0 -5 3 -11q2 -8 12.5 -19t27.5 -17
q14 -5 33.5 -6t38.5 -1q49 1 99 22.5t95.5 53t85 67t66.5 64.5v11q-10 -8 -29.5 -27.5t-46 -42.5t-57.5 -45.5t-64 -37.5q45 53 73 122.5t28 154.5q0 30 -4 61.5t-13 65.5l18 18l-14 11q-18 -21 -28.5 -33.5t-18 -20.5t-14 -13.5t-15.5 -12.5zM610 410q-24 -16 -52 -34.5
t-60 -26.5q-8 -2 -15 -2.5t-13 -0.5q-21 0 -32 8.5t-24 23.5q-18 23 -34 38.5t-35 15.5q-21 0 -46 -26t-63 -90l-186 -316h-50q19 35 46 80.5t57.5 94.5t61 98.5t56.5 93.5q25 42 54.5 60t58.5 18q26 0 48.5 -13t38.5 -36q15 -23 28.5 -29t27.5 -6q5 0 10.5 0.5t10.5 1.5
q50 11 105 55z" />
    <glyph glyph-name="registered" unicode="&#xae;" horiz-adv-x="675" 
d="M759 207v11q-10 -8 -29.5 -27.5t-46 -42.5t-57.5 -45.5t-64 -37.5q45 53 73 122.5t28 154.5q0 30 -4 61.5t-13 65.5l18 18l-14 11q-67 -72 -120.5 -105.5t-105.5 -33.5q-8 0 -17 2.5t-17 6.5t-13 8t-5 7q0 11 -1.5 22.5t-6 21t-13.5 15.5t-24 6q-11 0 -26.5 -4t-35.5 -15
q-44 -24 -83.5 -58.5t-72.5 -76t-58.5 -89.5t-40.5 -100q-8 -30 -8 -49q0 -55 49 -55q28 0 65 17q46 27 87.5 69t75 88.5t57 93t34.5 83.5q18 -8 41 -8q27 0 57.5 8.5t60 23.5t56.5 35t47 43q0 -57 -4 -96.5t-11 -74.5q-6 -33 -21.5 -71.5t-39.5 -76t-57 -70t-75 -51.5
q-8 -4 -17.5 -6.5t-20.5 -2.5q-13 0 -25.5 4t-23.5 9q-11 6 -15 16.5t-7 15.5q-5 13 -11 13t-6 -9q0 -5 3 -11q2 -8 12.5 -19t27.5 -17q14 -5 33.5 -6t38.5 -1q49 1 99 22.5t95.5 53t85 67t66.5 64.5zM360 407q0 -44 -19 -95t-52 -102.5t-76.5 -98.5t-92.5 -82
q-20 -14 -37.5 -19.5t-31.5 -5.5q-32 0 -32 27q0 4 2 12q11 37 37.5 84.5t62 97.5t75 97.5t76.5 84.5q17 17 31.5 24t25.5 7q14 0 22.5 -9.5t8.5 -21.5z" />
    <glyph glyph-name="macron" unicode="&#xaf;" horiz-adv-x="516" 
d="M527 207v11q-10 -8 -29.5 -27.5t-46 -42.5t-57.5 -45.5t-64 -37.5q45 53 73 122.5t28 154.5q0 30 -4 61.5t-13 65.5l18 18l-14 11q-18 -21 -29 -33.5t-18.5 -20.5t-14 -13.5t-15.5 -12.5l8 -8q9 7 14 11.5t9.5 8.5t10.5 9.5t17 14.5q0 -57 -4 -96.5t-11 -74.5
q-6 -33 -21.5 -71.5t-39.5 -76t-57 -70t-75 -51.5q-8 -4 -17.5 -6.5t-20.5 -2.5q-13 0 -25.5 4t-23.5 9q-11 6 -15 16.5t-7 15.5q-5 13 -11 13t-6 -9q0 -5 3 -11q2 -8 12.5 -19t27.5 -17q14 -5 33.5 -6t38.5 -1q49 1 99 22.5t95.5 53t85 67t66.5 64.5z" />
    <glyph glyph-name="glyph128" horiz-adv-x="1641" 
d="M1329 1393q0 -5 -0.5 -9.5t-1.5 -9.5q-4 -20 -16 -42t-27.5 -41.5t-32 -35t-30.5 -23.5q-10 -6 -23.5 -10t-27.5 -4q-26 0 -43 18q-6 9 -8.5 20t-2.5 22q0 29 7 49q5 15 16 31.5t24.5 31.5t28 27t26.5 19q27 16 54 16q20 0 37 -9q8 -5 14 -19t6 -31zM1322 1395
q0 12 -6 26q-5 10 -13 13.5t-17 3.5q-11 0 -22 -4t-17 -9q-11 -8 -28 -24t-33.5 -35t-30 -39.5t-17.5 -36.5q-2 -7 -3.5 -13.5t-1.5 -13.5q0 -16 12 -31q7 -7 21 -7q13 0 27 4.5t25 10.5q12 6 26.5 19.5t28 29.5t24 32.5t15.5 30.5q3 8 6.5 18.5t3.5 24.5z" />
    <glyph glyph-name="plusminus" unicode="&#xb1;" horiz-adv-x="436" 
d="M381 294h-109l62 113h-40l-65 -113h-91l-22 -33h94l-61 -98h47l58 98h102zM294 135h-243l-22 -33h240z" />
    <glyph glyph-name="twosuperior" unicode="&#xb2;" horiz-adv-x="377" 
d="M373 315q0 11 -2.5 18t-3.5 8q-8 16 -28 24t-46 8q-37 0 -79 -17.5t-73 -54.5q-11 -9 -18.5 -23t-7.5 -29q0 -17 14 -30t49 -16q-17 13 -25.5 28.5t-8.5 32.5q0 27 20.5 52t60.5 40q7 3 16.5 4.5t20.5 1.5q10 0 19.5 -2t16.5 -8q15 -11 15 -37q0 -36 -30 -83
q-25 -38 -58.5 -70t-71 -59.5t-77 -53t-76.5 -49.5h10q16 2 27 10t35 22q20 7 38 7q21 0 37.5 -7.5t30.5 -17.5q29 -10 58 -10q26 0 53 8.5t60 27.5l-4 7q-22 -17 -39 -23.5t-31 -6.5q-17 0 -31.5 7.5t-31 16.5t-38 16.5t-51.5 7.5q16 12 39 25.5t50 32.5t58 45t64 64
q23 26 31 47t8 36z" />
    <glyph glyph-name="threesuperior" unicode="&#xb3;" horiz-adv-x="356" 
d="M306 308q0 30 -18.5 47.5t-47.5 17.5q-25 0 -51 -13q-38 -20 -57 -44.5t-19 -46.5q0 -16 10.5 -29t32.5 -19q-9 7 -16 20t-7 30q0 19 13 40.5t46 40.5q15 8 30 8q20 0 31 -16t12 -43q0 -11 -1 -22.5t-6 -24.5q-8 -22 -22.5 -40.5t-46.5 -32.5v-11q10 7 17.5 9.5t12.5 2.5
q11 0 15.5 -8t4.5 -22q0 -17 -7 -37.5t-18 -38.5q-8 -12 -20 -23.5t-26.5 -20t-30 -13.5t-28.5 -5q-26 0 -37 18q13 4 20 15t7 24q0 14 -11 26.5t-34 14.5q-18 -2 -28 -15.5t-10 -31.5q0 -16 7.5 -31.5t23.5 -26.5q29 -8 63 -8q36 0 75.5 11.5t72.5 43.5q15 19 22.5 38.5
t7.5 37.5q0 44 -41 73q14 8 21.5 20.5t21.5 26.5q16 32 16 58z" />
    <glyph glyph-name="acute" unicode="&#xb4;" horiz-adv-x="654" 
d="M447 716q-2 2 -4 2q-3 0 -6 -4t-7.5 -8.5t-10.5 -8t-16 -3.5l-123 -189l7 -7z" />
    <glyph glyph-name="mu" unicode="&#xb5;" horiz-adv-x="387" 
d="M465 447h-51l-204 -317q-19 -24 -45.5 -52.5t-59.5 -48.5q-13 -8 -28 -14t-27 -6q-11 0 -18 6t-7 21q0 8 5 20.5t12.5 26t15.5 26t14 21.5q28 44 60.5 93t62 93t52.5 79t33 52h-51l-197 -298q-26 -40 -45.5 -69.5t-37.5 -54.5t-38.5 -49t-49.5 -53l8 -3q12 5 31.5 16.5
t39 25t36.5 27.5t24 25q8 -9 17 -12.5t20 -3.5q17 0 34.5 7.5t29.5 12.5q19 11 33.5 21.5t26 21t21.5 22.5t21 26q-5 -13 -5 -35q0 -15 4.5 -30.5t15.5 -25.5q8 -8 18.5 -12.5t25.5 -4.5q13 0 29 4.5t36 15.5l22.5 17.5t28 22.5t29.5 24.5t29 23.5l-7 7q-28 -22 -51.5 -42.5
t-54.5 -41.5q-33 -23 -59 -23q-22 0 -35 20q-3 9 -3 17q0 14 7.5 30.5t24.5 43.5z" />
    <glyph glyph-name="paragraph" unicode="&#xb6;" horiz-adv-x="627" 
d="M901 774q0 57 -37 85.5t-91 28.5q-30 0 -62.5 -9t-65 -27t-62 -46.5t-53.5 -67.5q-44 -70 -73.5 -120.5t-51.5 -91t-40 -75.5t-38 -73.5t-45.5 -86.5t-63.5 -113q-9 -15 -22 -35t-30 -38.5t-37 -33.5t-42 -21q35 62 73.5 128.5t76 133t73 129.5t66 117.5t54.5 98t39 70.5
l-40 -4q3 12 3 22q0 23 -14 36.5t-40 13.5q-20 0 -47 -10t-59 -33q-31 -22 -58.5 -47t-49 -50.5t-36 -50t-19.5 -44.5q-1 -6 -1 -13v-12q0 -14 2 -27.5t7 -24t13.5 -17t22.5 -6.5q13 0 30 6.5t42 20.5q32 17 56.5 38t41.5 35q-35 -56 -76.5 -128t-84.5 -148t-84 -150
t-75 -134h3q66 0 108.5 13.5t71 37.5t49 57.5t41.5 72.5q65 121 139 260.5t163 288.5q19 33 44.5 59t53 44t56 28t55.5 10q42 0 70 -25.5t30 -82.5q2 5 5.5 5.5t8.5 5.5zM423 739q0 -8 -1.5 -16t-3.5 -18q-17 -30 -28.5 -48t-23.5 -32.5t-28 -30.5t-40 -42
q-9 -9 -22.5 -19.5t-28.5 -18.5t-30.5 -13.5t-28.5 -5.5q-15 0 -24.5 9t-9.5 29q0 5 0.5 9.5t1.5 9.5q3 28 24 64.5t74 92.5q13 14 30 26.5t35 22.5t36 15.5t32 5.5q16 0 26 -9t10 -31z" />
    <glyph glyph-name="periodcentered" unicode="&#x2219;" horiz-adv-x="500" 
d="M436 65h-149l65 215q-20 -6 -36.5 -29.5t-30.5 -55t-26 -67t-23 -63.5h-171l316 320v29l-371 -378h222q-18 -44 -30.5 -75t-23.5 -53.5t-22 -39.5t-26 -32q30 0 52.5 16t39.5 43.5t31 64t27 76.5h152z" />
    <glyph glyph-name="cedilla" unicode="&#xb8;" horiz-adv-x="0" 
d="M447 716q-2 2 -4 2q-3 0 -6 -4t-7.5 -8.5t-10.5 -8t-16 -3.5l-123 -189l7 -7z" />
    <glyph glyph-name="onesuperior" unicode="&#xb9;" horiz-adv-x="223" 
d="M232 370q-4 -2 -18.5 -14.5t-34.5 -31t-42.5 -39.5t-42.5 -39.5t-34 -31t-17 -14.5q5 0 17 8t25 17t24 17t14 8q-32 -60 -60 -122t-63 -128h43q23 46 49.5 99.5t52 104.5t48.5 95t39 71z" />
    <glyph glyph-name="guillemotright" unicode="&#xbb;" horiz-adv-x="654" 
d="M574 192q-37 12 -79 30.5t-82 43.5t-74 58.5t-56 75.5h-11q18 -33 42.5 -66t57 -62.5t73 -53t89.5 -37.5l-288 -156v-11zM400 192q-37 12 -79 30.5t-82 43.5t-74 58.5t-56 75.5h-11q18 -33 42.5 -66t57 -62.5t73 -53t89.5 -37.5l-288 -156v-11z" />
    <glyph glyph-name="onequarter" unicode="&#xbc;" horiz-adv-x="490" 
d="M385 472l-11 11q-60 -26 -115 -74.5t-108 -102t-105 -103t-105 -76.5l11 -15q61 34 115 86t105.5 105t103.5 99.5t109 69.5zM241 675q-4 -2 -18.5 -14.5t-34.5 -31t-42.5 -39.5t-42.5 -39.5t-34 -31t-17 -14.5q5 0 17 8t25 17t24 17t14 8q-32 -60 -60 -122t-63 -128h43
q23 46 49.5 99.5t52 104.5t48.5 95t39 71zM436 65h-149l65 215q-20 -6 -36.5 -29.5t-30.5 -55t-26 -67t-23 -63.5h-171l316 320v29l-371 -378h222q-18 -44 -30.5 -75t-23.5 -53.5t-22 -39.5t-26 -32q30 0 52.5 16t39.5 43.5t31 64t27 76.5h152z" />
    <glyph glyph-name="onehalf" unicode="&#xbd;" horiz-adv-x="490" 
d="M385 472l-11 11q-60 -26 -115 -74.5t-108 -102t-105 -103t-105 -76.5l11 -15q61 34 115 86t105.5 105t103.5 99.5t109 69.5zM248 670q-4 -2 -18.5 -14.5t-34.5 -31t-42.5 -39.5t-42.5 -39.5t-34 -31t-17 -14.5q5 0 17 8t25 17t24 17t14 8q-32 -60 -60 -122t-63 -128h43
q23 46 49.5 99.5t52 104.5t48.5 95t39 71zM463 315q0 11 -2.5 18t-3.5 8q-8 16 -28 24t-46 8q-37 0 -79 -17.5t-73 -54.5q-11 -9 -18.5 -23t-7.5 -29q0 -17 14 -30t49 -16q-17 13 -25.5 28.5t-8.5 32.5q0 27 20.5 52t60.5 40q7 3 16.5 4.5t20.5 1.5q10 0 19.5 -2t16.5 -8
q15 -11 15 -37q0 -36 -30 -83q-25 -38 -58.5 -70t-71 -59.5t-77 -53t-76.5 -49.5h10q16 2 27 10t35 22q20 7 38 7q21 0 37.5 -7.5t30.5 -17.5q29 -10 58 -10q26 0 53 8.5t60 27.5l-4 7q-22 -17 -39 -23.5t-31 -6.5q-17 0 -31.5 7.5t-31 16.5t-38 16.5t-51.5 7.5
q16 12 39 25.5t50 32.5t58 45t64 64q23 26 31 47t8 36z" />
    <glyph glyph-name="threequarters" unicode="&#xbe;" horiz-adv-x="490" 
d="M385 472l-11 11q-60 -26 -115 -74.5t-108 -102t-105 -103t-105 -76.5l11 -15q61 34 115 86t105.5 105t103.5 99.5t109 69.5zM276 668q0 30 -18.5 47.5t-47.5 17.5q-25 0 -51 -13q-38 -20 -57 -44.5t-19 -46.5q0 -16 10.5 -29t32.5 -19q-9 7 -16 20t-7 30q0 19 13 40.5
t46 40.5q15 8 30 8q20 0 31 -16t12 -43q0 -11 -1 -22.5t-6 -24.5q-8 -22 -22.5 -40.5t-46.5 -32.5v-11q10 7 17.5 9.5t12.5 2.5q11 0 15.5 -8t4.5 -22q0 -17 -7 -37.5t-18 -38.5q-8 -12 -20 -23.5t-26.5 -20t-30 -13.5t-28.5 -5q-26 0 -37 18q13 4 20 15t7 24q0 14 -11 26.5
t-34 14.5q-18 -2 -28 -15.5t-10 -31.5q0 -16 7.5 -31.5t23.5 -26.5q29 -8 63 -8q36 0 75.5 11.5t72.5 43.5q15 19 22.5 38.5t7.5 37.5q0 44 -41 73q14 8 21.5 20.5t21.5 26.5q16 32 16 58zM436 65h-149l65 215q-20 -6 -36.5 -29.5t-30.5 -55t-26 -67t-23 -63.5h-171l316 320
v29l-371 -378h222q-18 -44 -30.5 -75t-23.5 -53.5t-22 -39.5t-26 -32q30 0 52.5 16t39.5 43.5t31 64t27 76.5h152z" />
    <glyph glyph-name="Agrave" unicode="&#xc0;" 
d="M2475 828q0 46 -16.5 89t-50.5 76t-86 52.5t-122 19.5q-85 0 -164.5 -24.5t-153 -66.5t-141 -98.5t-127.5 -121t-113 -134t-98 -137.5q-47 23 -95 54t-86.5 71.5t-63 90.5t-24.5 111q0 84 38 155t101.5 128t145.5 100.5t171 72.5t178.5 44t166.5 15q127 0 239 -25
t193 -71v3q-112 60 -226.5 86.5t-228.5 26.5q-93 0 -188 -15t-183.5 -45t-165.5 -76t-134 -107t-90 -138.5t-33 -171.5q0 -71 27 -125.5t67 -95.5t85.5 -69.5t83.5 -47.5q-17 -24 -49 -66t-76.5 -92t-99.5 -101.5t-116 -93.5t-127 -68.5t-133 -26.5q-44 0 -84 11.5t-82 28.5
q65 32 107.5 71t61.5 75q22 -12 49.5 -18.5t56.5 -6.5q48 0 92.5 18.5t78.5 50t54 73t20 87.5q0 64 -23.5 109.5t-63 74.5t-91 43t-108.5 14q-54 0 -114.5 -12t-111.5 -42q-29 36 -87 57.5t-136 21.5q-68 0 -135 -24.5t-120 -70.5t-86 -111.5t-33 -147.5q0 -72 27.5 -129
t74.5 -97t109.5 -61t131.5 -21q60 0 119.5 11t104.5 26q58 -23 102.5 -31.5t86.5 -8.5q66 0 131.5 20t128 53.5t120.5 77.5t108 92t91.5 97t71.5 92q17 -8 45.5 -16t52.5 -13q-28 -48 -40.5 -93t-12.5 -85q0 -55 16 -96.5t45.5 -69.5t69.5 -42t88 -14q51 0 105 17t105 45.5
t96.5 65.5t79.5 78t54 82.5t20 78.5q0 45 -21.5 64.5t-55.5 19.5q-51 0 -101.5 -30.5t-90.5 -76t-65 -98.5t-25 -97q0 -40 13 -69q-9 25 -9 54q0 44 25 96t64.5 97t88 75t96.5 30q26 0 42.5 -15.5t16.5 -49.5q0 -42 -20.5 -84.5t-55 -81.5t-79.5 -73t-95 -59.5t-101.5 -40
t-98.5 -14.5q-70 0 -111 35.5t-41 118.5q0 44 12 99.5t47 120.5q17 -2 37 -3.5t37 -1.5q94 0 183 34t152 99q24 -17 54.5 -24t63.5 -7q72 0 137 30t113.5 79t77.5 110t29 124zM2456 837q0 -63 -30.5 -123t-79.5 -107t-111.5 -75.5t-127.5 -28.5q-27 0 -52 6.5t-45 20.5
q46 50 64.5 86.5t18.5 77.5q0 29 -15.5 51t-41.5 22q-22 0 -39.5 -12t-29.5 -31t-18.5 -41t-6.5 -43q0 -26 9.5 -58t29.5 -52q-57 -57 -126.5 -83t-164.5 -26q-19 0 -39 1t-41 3q66 118 130.5 201t130.5 144t135 107.5t143 92.5q-63 -30 -137 -71t-152.5 -103t-158 -149.5
t-152.5 -210.5q-22 4 -35.5 7t-23 5.5t-17.5 5.5t-19 7q34 60 81 127t103.5 132.5t122 125.5t137 105.5t147.5 72.5t155 27q68 0 116.5 -20.5t79.5 -52t45.5 -69.5t14.5 -72zM2078 705q0 -28 -9 -52.5t-22.5 -44.5t-28 -36.5t-24.5 -29.5q-17 18 -26 44.5t-9 48.5q0 23 6 44
t16.5 37.5t24.5 26t31 9.5q14 0 26.5 -13.5t14.5 -33.5zM1114 407q0 -51 -19 -92.5t-51 -71.5t-74 -46.5t-89 -16.5q-49 0 -92 23q9 20 13 38t4 32q0 20 -9 38.5t-30 18.5q-17 0 -26.5 -17.5t-9.5 -36.5q0 -28 14 -48t29 -28q-14 -29 -35.5 -52t-45.5 -41t-48.5 -31.5
t-44.5 -22.5q-48 23 -75 52t-38 51q44 15 80.5 42t62.5 61t40.5 73.5t14.5 80.5q0 34 -11.5 76.5t-34.5 74.5q60 36 117.5 43t108.5 7t96 -14t79 -40.5t54 -65t20 -87.5zM795 271q0 -26 -17 -61q-19 11 -27 30t-8 36q0 11 7 26.5t18 15.5q6 0 11 -5t8.5 -12t5.5 -15.5
t2 -14.5zM666 425q0 -37 -11.5 -75t-34.5 -72.5t-59 -62.5t-85 -45q-22 37 -22 89q0 36 10 77t31 80.5t52.5 75t74.5 62.5q18 -23 31 -58.5t13 -70.5zM607 572q-47 -29 -80 -65.5t-54 -75.5t-30.5 -79.5t-9.5 -77.5q0 -58 25 -111q-20 -5 -37.5 -6.5t-34.5 -1.5
q-40 0 -72.5 14t-55 37t-35 52t-12.5 58t11 58.5t31.5 53t50 38t66.5 14.5q-43 0 -75 -13t-53 -35t-31.5 -51t-10.5 -60q0 -32 12 -63.5t36 -57.5t61.5 -42t88.5 -16q17 0 34.5 2t36.5 5q19 -30 50 -60t61 -44q-40 -14 -93.5 -23t-104.5 -9q-67 0 -128.5 19.5t-108.5 57.5
t-75 93t-28 127q0 75 29.5 137t78.5 106t113 68.5t133 24.5q64 0 118 -16.5t93 -57.5zM2087 1426l-94 182q-23 7 -29 17.5t-10 10.5q-2 0 -5 -3l131 -214z" />
    <glyph glyph-name="Aacute" unicode="&#xc1;" 
d="M2475 828q0 46 -16.5 89t-50.5 76t-86 52.5t-122 19.5q-85 0 -164.5 -24.5t-153 -66.5t-141 -98.5t-127.5 -121t-113 -134t-98 -137.5q-47 23 -95 54t-86.5 71.5t-63 90.5t-24.5 111q0 84 38 155t101.5 128t145.5 100.5t171 72.5t178.5 44t166.5 15q127 0 239 -25
t193 -71v3q-112 60 -226.5 86.5t-228.5 26.5q-93 0 -188 -15t-183.5 -45t-165.5 -76t-134 -107t-90 -138.5t-33 -171.5q0 -71 27 -125.5t67 -95.5t85.5 -69.5t83.5 -47.5q-17 -24 -49 -66t-76.5 -92t-99.5 -101.5t-116 -93.5t-127 -68.5t-133 -26.5q-44 0 -84 11.5t-82 28.5
q65 32 107.5 71t61.5 75q22 -12 49.5 -18.5t56.5 -6.5q48 0 92.5 18.5t78.5 50t54 73t20 87.5q0 64 -23.5 109.5t-63 74.5t-91 43t-108.5 14q-54 0 -114.5 -12t-111.5 -42q-29 36 -87 57.5t-136 21.5q-68 0 -135 -24.5t-120 -70.5t-86 -111.5t-33 -147.5q0 -72 27.5 -129
t74.5 -97t109.5 -61t131.5 -21q60 0 119.5 11t104.5 26q58 -23 102.5 -31.5t86.5 -8.5q66 0 131.5 20t128 53.5t120.5 77.5t108 92t91.5 97t71.5 92q17 -8 45.5 -16t52.5 -13q-28 -48 -40.5 -93t-12.5 -85q0 -55 16 -96.5t45.5 -69.5t69.5 -42t88 -14q51 0 105 17t105 45.5
t96.5 65.5t79.5 78t54 82.5t20 78.5q0 45 -21.5 64.5t-55.5 19.5q-51 0 -101.5 -30.5t-90.5 -76t-65 -98.5t-25 -97q0 -40 13 -69q-9 25 -9 54q0 44 25 96t64.5 97t88 75t96.5 30q26 0 42.5 -15.5t16.5 -49.5q0 -42 -20.5 -84.5t-55 -81.5t-79.5 -73t-95 -59.5t-101.5 -40
t-98.5 -14.5q-70 0 -111 35.5t-41 118.5q0 44 12 99.5t47 120.5q17 -2 37 -3.5t37 -1.5q94 0 183 34t152 99q24 -17 54.5 -24t63.5 -7q72 0 137 30t113.5 79t77.5 110t29 124zM2456 837q0 -63 -30.5 -123t-79.5 -107t-111.5 -75.5t-127.5 -28.5q-27 0 -52 6.5t-45 20.5
q46 50 64.5 86.5t18.5 77.5q0 29 -15.5 51t-41.5 22q-22 0 -39.5 -12t-29.5 -31t-18.5 -41t-6.5 -43q0 -26 9.5 -58t29.5 -52q-57 -57 -126.5 -83t-164.5 -26q-19 0 -39 1t-41 3q66 118 130.5 201t130.5 144t135 107.5t143 92.5q-63 -30 -137 -71t-152.5 -103t-158 -149.5
t-152.5 -210.5q-22 4 -35.5 7t-23 5.5t-17.5 5.5t-19 7q34 60 81 127t103.5 132.5t122 125.5t137 105.5t147.5 72.5t155 27q68 0 116.5 -20.5t79.5 -52t45.5 -69.5t14.5 -72zM2078 705q0 -28 -9 -52.5t-22.5 -44.5t-28 -36.5t-24.5 -29.5q-17 18 -26 44.5t-9 48.5q0 23 6 44
t16.5 37.5t24.5 26t31 9.5q14 0 26.5 -13.5t14.5 -33.5zM1114 407q0 -51 -19 -92.5t-51 -71.5t-74 -46.5t-89 -16.5q-49 0 -92 23q9 20 13 38t4 32q0 20 -9 38.5t-30 18.5q-17 0 -26.5 -17.5t-9.5 -36.5q0 -28 14 -48t29 -28q-14 -29 -35.5 -52t-45.5 -41t-48.5 -31.5
t-44.5 -22.5q-48 23 -75 52t-38 51q44 15 80.5 42t62.5 61t40.5 73.5t14.5 80.5q0 34 -11.5 76.5t-34.5 74.5q60 36 117.5 43t108.5 7t96 -14t79 -40.5t54 -65t20 -87.5zM795 271q0 -26 -17 -61q-19 11 -27 30t-8 36q0 11 7 26.5t18 15.5q6 0 11 -5t8.5 -12t5.5 -15.5
t2 -14.5zM666 425q0 -37 -11.5 -75t-34.5 -72.5t-59 -62.5t-85 -45q-22 37 -22 89q0 36 10 77t31 80.5t52.5 75t74.5 62.5q18 -23 31 -58.5t13 -70.5zM607 572q-47 -29 -80 -65.5t-54 -75.5t-30.5 -79.5t-9.5 -77.5q0 -58 25 -111q-20 -5 -37.5 -6.5t-34.5 -1.5
q-40 0 -72.5 14t-55 37t-35 52t-12.5 58t11 58.5t31.5 53t50 38t66.5 14.5q-43 0 -75 -13t-53 -35t-31.5 -51t-10.5 -60q0 -32 12 -63.5t36 -57.5t61.5 -42t88.5 -16q17 0 34.5 2t36.5 5q19 -30 50 -60t61 -44q-40 -14 -93.5 -23t-104.5 -9q-67 0 -128.5 19.5t-108.5 57.5
t-75 93t-28 127q0 75 29.5 137t78.5 106t113 68.5t133 24.5q64 0 118 -16.5t93 -57.5zM2281 1645q-2 2 -4 2q-3 0 -6 -4t-7.5 -8.5t-10.5 -8t-16 -3.5l-123 -189l7 -7z" />
    <glyph glyph-name="Acircumflex" unicode="&#xc2;" 
d="M2475 828q0 46 -16.5 89t-50.5 76t-86 52.5t-122 19.5q-85 0 -164.5 -24.5t-153 -66.5t-141 -98.5t-127.5 -121t-113 -134t-98 -137.5q-47 23 -95 54t-86.5 71.5t-63 90.5t-24.5 111q0 84 38 155t101.5 128t145.5 100.5t171 72.5t178.5 44t166.5 15q127 0 239 -25
t193 -71v3q-112 60 -226.5 86.5t-228.5 26.5q-93 0 -188 -15t-183.5 -45t-165.5 -76t-134 -107t-90 -138.5t-33 -171.5q0 -71 27 -125.5t67 -95.5t85.5 -69.5t83.5 -47.5q-17 -24 -49 -66t-76.5 -92t-99.5 -101.5t-116 -93.5t-127 -68.5t-133 -26.5q-44 0 -84 11.5t-82 28.5
q65 32 107.5 71t61.5 75q22 -12 49.5 -18.5t56.5 -6.5q48 0 92.5 18.5t78.5 50t54 73t20 87.5q0 64 -23.5 109.5t-63 74.5t-91 43t-108.5 14q-54 0 -114.5 -12t-111.5 -42q-29 36 -87 57.5t-136 21.5q-68 0 -135 -24.5t-120 -70.5t-86 -111.5t-33 -147.5q0 -72 27.5 -129
t74.5 -97t109.5 -61t131.5 -21q60 0 119.5 11t104.5 26q58 -23 102.5 -31.5t86.5 -8.5q66 0 131.5 20t128 53.5t120.5 77.5t108 92t91.5 97t71.5 92q17 -8 45.5 -16t52.5 -13q-28 -48 -40.5 -93t-12.5 -85q0 -55 16 -96.5t45.5 -69.5t69.5 -42t88 -14q51 0 105 17t105 45.5
t96.5 65.5t79.5 78t54 82.5t20 78.5q0 45 -21.5 64.5t-55.5 19.5q-51 0 -101.5 -30.5t-90.5 -76t-65 -98.5t-25 -97q0 -40 13 -69q-9 25 -9 54q0 44 25 96t64.5 97t88 75t96.5 30q26 0 42.5 -15.5t16.5 -49.5q0 -42 -20.5 -84.5t-55 -81.5t-79.5 -73t-95 -59.5t-101.5 -40
t-98.5 -14.5q-70 0 -111 35.5t-41 118.5q0 44 12 99.5t47 120.5q17 -2 37 -3.5t37 -1.5q94 0 183 34t152 99q24 -17 54.5 -24t63.5 -7q72 0 137 30t113.5 79t77.5 110t29 124zM2456 837q0 -63 -30.5 -123t-79.5 -107t-111.5 -75.5t-127.5 -28.5q-27 0 -52 6.5t-45 20.5
q46 50 64.5 86.5t18.5 77.5q0 29 -15.5 51t-41.5 22q-22 0 -39.5 -12t-29.5 -31t-18.5 -41t-6.5 -43q0 -26 9.5 -58t29.5 -52q-57 -57 -126.5 -83t-164.5 -26q-19 0 -39 1t-41 3q66 118 130.5 201t130.5 144t135 107.5t143 92.5q-63 -30 -137 -71t-152.5 -103t-158 -149.5
t-152.5 -210.5q-22 4 -35.5 7t-23 5.5t-17.5 5.5t-19 7q34 60 81 127t103.5 132.5t122 125.5t137 105.5t147.5 72.5t155 27q68 0 116.5 -20.5t79.5 -52t45.5 -69.5t14.5 -72zM2078 705q0 -28 -9 -52.5t-22.5 -44.5t-28 -36.5t-24.5 -29.5q-17 18 -26 44.5t-9 48.5q0 23 6 44
t16.5 37.5t24.5 26t31 9.5q14 0 26.5 -13.5t14.5 -33.5zM1114 407q0 -51 -19 -92.5t-51 -71.5t-74 -46.5t-89 -16.5q-49 0 -92 23q9 20 13 38t4 32q0 20 -9 38.5t-30 18.5q-17 0 -26.5 -17.5t-9.5 -36.5q0 -28 14 -48t29 -28q-14 -29 -35.5 -52t-45.5 -41t-48.5 -31.5
t-44.5 -22.5q-48 23 -75 52t-38 51q44 15 80.5 42t62.5 61t40.5 73.5t14.5 80.5q0 34 -11.5 76.5t-34.5 74.5q60 36 117.5 43t108.5 7t96 -14t79 -40.5t54 -65t20 -87.5zM795 271q0 -26 -17 -61q-19 11 -27 30t-8 36q0 11 7 26.5t18 15.5q6 0 11 -5t8.5 -12t5.5 -15.5
t2 -14.5zM666 425q0 -37 -11.5 -75t-34.5 -72.5t-59 -62.5t-85 -45q-22 37 -22 89q0 36 10 77t31 80.5t52.5 75t74.5 62.5q18 -23 31 -58.5t13 -70.5zM607 572q-47 -29 -80 -65.5t-54 -75.5t-30.5 -79.5t-9.5 -77.5q0 -58 25 -111q-20 -5 -37.5 -6.5t-34.5 -1.5
q-40 0 -72.5 14t-55 37t-35 52t-12.5 58t11 58.5t31.5 53t50 38t66.5 14.5q-43 0 -75 -13t-53 -35t-31.5 -51t-10.5 -60q0 -32 12 -63.5t36 -57.5t61.5 -42t88.5 -16q17 0 34.5 2t36.5 5q19 -30 50 -60t61 -44q-40 -14 -93.5 -23t-104.5 -9q-67 0 -128.5 19.5t-108.5 57.5
t-75 93t-28 127q0 75 29.5 137t78.5 106t113 68.5t133 24.5q64 0 118 -16.5t93 -57.5zM2184 1561l-11 8q-30 -31 -58 -54t-57 -41t-59.5 -31t-65.5 -23l13 -8q17 2 35 4.5t37.5 8.5t40.5 16t45 27q8 -14 15.5 -31t21.5 -25q5 0 11 3q-4 14 -8.5 28t-4.5 31q0 19 9.5 40
t35.5 47z" />
    <glyph glyph-name="Atilde" unicode="&#xc3;" 
d="M2475 828q0 46 -16.5 89t-50.5 76t-86 52.5t-122 19.5q-85 0 -164.5 -24.5t-153 -66.5t-141 -98.5t-127.5 -121t-113 -134t-98 -137.5q-47 23 -95 54t-86.5 71.5t-63 90.5t-24.5 111q0 84 38 155t101.5 128t145.5 100.5t171 72.5t178.5 44t166.5 15q127 0 239 -25
t193 -71v3q-112 60 -226.5 86.5t-228.5 26.5q-93 0 -188 -15t-183.5 -45t-165.5 -76t-134 -107t-90 -138.5t-33 -171.5q0 -71 27 -125.5t67 -95.5t85.5 -69.5t83.5 -47.5q-17 -24 -49 -66t-76.5 -92t-99.5 -101.5t-116 -93.5t-127 -68.5t-133 -26.5q-44 0 -84 11.5t-82 28.5
q65 32 107.5 71t61.5 75q22 -12 49.5 -18.5t56.5 -6.5q48 0 92.5 18.5t78.5 50t54 73t20 87.5q0 64 -23.5 109.5t-63 74.5t-91 43t-108.5 14q-54 0 -114.5 -12t-111.5 -42q-29 36 -87 57.5t-136 21.5q-68 0 -135 -24.5t-120 -70.5t-86 -111.5t-33 -147.5q0 -72 27.5 -129
t74.5 -97t109.5 -61t131.5 -21q60 0 119.5 11t104.5 26q58 -23 102.5 -31.5t86.5 -8.5q66 0 131.5 20t128 53.5t120.5 77.5t108 92t91.5 97t71.5 92q17 -8 45.5 -16t52.5 -13q-28 -48 -40.5 -93t-12.5 -85q0 -55 16 -96.5t45.5 -69.5t69.5 -42t88 -14q51 0 105 17t105 45.5
t96.5 65.5t79.5 78t54 82.5t20 78.5q0 45 -21.5 64.5t-55.5 19.5q-51 0 -101.5 -30.5t-90.5 -76t-65 -98.5t-25 -97q0 -40 13 -69q-9 25 -9 54q0 44 25 96t64.5 97t88 75t96.5 30q26 0 42.5 -15.5t16.5 -49.5q0 -42 -20.5 -84.5t-55 -81.5t-79.5 -73t-95 -59.5t-101.5 -40
t-98.5 -14.5q-70 0 -111 35.5t-41 118.5q0 44 12 99.5t47 120.5q17 -2 37 -3.5t37 -1.5q94 0 183 34t152 99q24 -17 54.5 -24t63.5 -7q72 0 137 30t113.5 79t77.5 110t29 124zM2456 837q0 -63 -30.5 -123t-79.5 -107t-111.5 -75.5t-127.5 -28.5q-27 0 -52 6.5t-45 20.5
q46 50 64.5 86.5t18.5 77.5q0 29 -15.5 51t-41.5 22q-22 0 -39.5 -12t-29.5 -31t-18.5 -41t-6.5 -43q0 -26 9.5 -58t29.5 -52q-57 -57 -126.5 -83t-164.5 -26q-19 0 -39 1t-41 3q66 118 130.5 201t130.5 144t135 107.5t143 92.5q-63 -30 -137 -71t-152.5 -103t-158 -149.5
t-152.5 -210.5q-22 4 -35.5 7t-23 5.5t-17.5 5.5t-19 7q34 60 81 127t103.5 132.5t122 125.5t137 105.5t147.5 72.5t155 27q68 0 116.5 -20.5t79.5 -52t45.5 -69.5t14.5 -72zM2078 705q0 -28 -9 -52.5t-22.5 -44.5t-28 -36.5t-24.5 -29.5q-17 18 -26 44.5t-9 48.5q0 23 6 44
t16.5 37.5t24.5 26t31 9.5q14 0 26.5 -13.5t14.5 -33.5zM1114 407q0 -51 -19 -92.5t-51 -71.5t-74 -46.5t-89 -16.5q-49 0 -92 23q9 20 13 38t4 32q0 20 -9 38.5t-30 18.5q-17 0 -26.5 -17.5t-9.5 -36.5q0 -28 14 -48t29 -28q-14 -29 -35.5 -52t-45.5 -41t-48.5 -31.5
t-44.5 -22.5q-48 23 -75 52t-38 51q44 15 80.5 42t62.5 61t40.5 73.5t14.5 80.5q0 34 -11.5 76.5t-34.5 74.5q60 36 117.5 43t108.5 7t96 -14t79 -40.5t54 -65t20 -87.5zM795 271q0 -26 -17 -61q-19 11 -27 30t-8 36q0 11 7 26.5t18 15.5q6 0 11 -5t8.5 -12t5.5 -15.5
t2 -14.5zM666 425q0 -37 -11.5 -75t-34.5 -72.5t-59 -62.5t-85 -45q-22 37 -22 89q0 36 10 77t31 80.5t52.5 75t74.5 62.5q18 -23 31 -58.5t13 -70.5zM607 572q-47 -29 -80 -65.5t-54 -75.5t-30.5 -79.5t-9.5 -77.5q0 -58 25 -111q-20 -5 -37.5 -6.5t-34.5 -1.5
q-40 0 -72.5 14t-55 37t-35 52t-12.5 58t11 58.5t31.5 53t50 38t66.5 14.5q-43 0 -75 -13t-53 -35t-31.5 -51t-10.5 -60q0 -32 12 -63.5t36 -57.5t61.5 -42t88.5 -16q17 0 34.5 2t36.5 5q19 -30 50 -60t61 -44q-40 -14 -93.5 -23t-104.5 -9q-67 0 -128.5 19.5t-108.5 57.5
t-75 93t-28 127q0 75 29.5 137t78.5 106t113 68.5t133 24.5q64 0 118 -16.5t93 -57.5zM2276 1435l-3 3q-26 -10 -50 -10t-46 7.5t-43.5 17t-43 17t-44.5 7.5q-42 0 -93 -42v-7q17 16 34 22t36 6q21 0 43.5 -5.5t46 -12.5t47.5 -12.5t49 -5.5q17 0 33.5 3.5t33.5 11.5z" />
    <glyph glyph-name="Adieresis" unicode="&#xc4;" 
d="M2475 828q0 46 -16.5 89t-50.5 76t-86 52.5t-122 19.5q-85 0 -164.5 -24.5t-153 -66.5t-141 -98.5t-127.5 -121t-113 -134t-98 -137.5q-47 23 -95 54t-86.5 71.5t-63 90.5t-24.5 111q0 84 38 155t101.5 128t145.5 100.5t171 72.5t178.5 44t166.5 15q127 0 239 -25
t193 -71v3q-112 60 -226.5 86.5t-228.5 26.5q-93 0 -188 -15t-183.5 -45t-165.5 -76t-134 -107t-90 -138.5t-33 -171.5q0 -71 27 -125.5t67 -95.5t85.5 -69.5t83.5 -47.5q-17 -24 -49 -66t-76.5 -92t-99.5 -101.5t-116 -93.5t-127 -68.5t-133 -26.5q-44 0 -84 11.5t-82 28.5
q65 32 107.5 71t61.5 75q22 -12 49.5 -18.5t56.5 -6.5q48 0 92.5 18.5t78.5 50t54 73t20 87.5q0 64 -23.5 109.5t-63 74.5t-91 43t-108.5 14q-54 0 -114.5 -12t-111.5 -42q-29 36 -87 57.5t-136 21.5q-68 0 -135 -24.5t-120 -70.5t-86 -111.5t-33 -147.5q0 -72 27.5 -129
t74.5 -97t109.5 -61t131.5 -21q60 0 119.5 11t104.5 26q58 -23 102.5 -31.5t86.5 -8.5q66 0 131.5 20t128 53.5t120.5 77.5t108 92t91.5 97t71.5 92q17 -8 45.5 -16t52.5 -13q-28 -48 -40.5 -93t-12.5 -85q0 -55 16 -96.5t45.5 -69.5t69.5 -42t88 -14q51 0 105 17t105 45.5
t96.5 65.5t79.5 78t54 82.5t20 78.5q0 45 -21.5 64.5t-55.5 19.5q-51 0 -101.5 -30.5t-90.5 -76t-65 -98.5t-25 -97q0 -40 13 -69q-9 25 -9 54q0 44 25 96t64.5 97t88 75t96.5 30q26 0 42.5 -15.5t16.5 -49.5q0 -42 -20.5 -84.5t-55 -81.5t-79.5 -73t-95 -59.5t-101.5 -40
t-98.5 -14.5q-70 0 -111 35.5t-41 118.5q0 44 12 99.5t47 120.5q17 -2 37 -3.5t37 -1.5q94 0 183 34t152 99q24 -17 54.5 -24t63.5 -7q72 0 137 30t113.5 79t77.5 110t29 124zM2456 837q0 -63 -30.5 -123t-79.5 -107t-111.5 -75.5t-127.5 -28.5q-27 0 -52 6.5t-45 20.5
q46 50 64.5 86.5t18.5 77.5q0 29 -15.5 51t-41.5 22q-22 0 -39.5 -12t-29.5 -31t-18.5 -41t-6.5 -43q0 -26 9.5 -58t29.5 -52q-57 -57 -126.5 -83t-164.5 -26q-19 0 -39 1t-41 3q66 118 130.5 201t130.5 144t135 107.5t143 92.5q-63 -30 -137 -71t-152.5 -103t-158 -149.5
t-152.5 -210.5q-22 4 -35.5 7t-23 5.5t-17.5 5.5t-19 7q34 60 81 127t103.5 132.5t122 125.5t137 105.5t147.5 72.5t155 27q68 0 116.5 -20.5t79.5 -52t45.5 -69.5t14.5 -72zM2078 705q0 -28 -9 -52.5t-22.5 -44.5t-28 -36.5t-24.5 -29.5q-17 18 -26 44.5t-9 48.5q0 23 6 44
t16.5 37.5t24.5 26t31 9.5q14 0 26.5 -13.5t14.5 -33.5zM1114 407q0 -51 -19 -92.5t-51 -71.5t-74 -46.5t-89 -16.5q-49 0 -92 23q9 20 13 38t4 32q0 20 -9 38.5t-30 18.5q-17 0 -26.5 -17.5t-9.5 -36.5q0 -28 14 -48t29 -28q-14 -29 -35.5 -52t-45.5 -41t-48.5 -31.5
t-44.5 -22.5q-48 23 -75 52t-38 51q44 15 80.5 42t62.5 61t40.5 73.5t14.5 80.5q0 34 -11.5 76.5t-34.5 74.5q60 36 117.5 43t108.5 7t96 -14t79 -40.5t54 -65t20 -87.5zM795 271q0 -26 -17 -61q-19 11 -27 30t-8 36q0 11 7 26.5t18 15.5q6 0 11 -5t8.5 -12t5.5 -15.5
t2 -14.5zM666 425q0 -37 -11.5 -75t-34.5 -72.5t-59 -62.5t-85 -45q-22 37 -22 89q0 36 10 77t31 80.5t52.5 75t74.5 62.5q18 -23 31 -58.5t13 -70.5zM607 572q-47 -29 -80 -65.5t-54 -75.5t-30.5 -79.5t-9.5 -77.5q0 -58 25 -111q-20 -5 -37.5 -6.5t-34.5 -1.5
q-40 0 -72.5 14t-55 37t-35 52t-12.5 58t11 58.5t31.5 53t50 38t66.5 14.5q-43 0 -75 -13t-53 -35t-31.5 -51t-10.5 -60q0 -32 12 -63.5t36 -57.5t61.5 -42t88.5 -16q17 0 34.5 2t36.5 5q19 -30 50 -60t61 -44q-40 -14 -93.5 -23t-104.5 -9q-67 0 -128.5 19.5t-108.5 57.5
t-75 93t-28 127q0 75 29.5 137t78.5 106t113 68.5t133 24.5q64 0 118 -16.5t93 -57.5zM2215 1516q0 9 -5 13t-13 4q-12 0 -22 -6q-28 -16 -38.5 -33t-12.5 -28q0 -20 3.5 -27.5t13.5 -7.5q2 0 12 2q22 14 37.5 30t20.5 35q4 9 4 18zM2091 1519q0 17 -17 17q-9 0 -19 -5
q-52 -28 -62 -65q-2 -8 -2 -12q0 -24 20 -24q7 0 18 6q22 14 37.5 33t20.5 33q4 8 4 17z" />
    <glyph glyph-name="Aring" unicode="&#xc5;" 
d="M2475 828q0 46 -16.5 89t-50.5 76t-86 52.5t-122 19.5q-85 0 -164.5 -24.5t-153 -66.5t-141 -98.5t-127.5 -121t-113 -134t-98 -137.5q-47 23 -95 54t-86.5 71.5t-63 90.5t-24.5 111q0 84 38 155t101.5 128t145.5 100.5t171 72.5t178.5 44t166.5 15q127 0 239 -25
t193 -71v3q-112 60 -226.5 86.5t-228.5 26.5q-93 0 -188 -15t-183.5 -45t-165.5 -76t-134 -107t-90 -138.5t-33 -171.5q0 -71 27 -125.5t67 -95.5t85.5 -69.5t83.5 -47.5q-17 -24 -49 -66t-76.5 -92t-99.5 -101.5t-116 -93.5t-127 -68.5t-133 -26.5q-44 0 -84 11.5t-82 28.5
q65 32 107.5 71t61.5 75q22 -12 49.5 -18.5t56.5 -6.5q48 0 92.5 18.5t78.5 50t54 73t20 87.5q0 64 -23.5 109.5t-63 74.5t-91 43t-108.5 14q-54 0 -114.5 -12t-111.5 -42q-29 36 -87 57.5t-136 21.5q-68 0 -135 -24.5t-120 -70.5t-86 -111.5t-33 -147.5q0 -72 27.5 -129
t74.5 -97t109.5 -61t131.5 -21q60 0 119.5 11t104.5 26q58 -23 102.5 -31.5t86.5 -8.5q66 0 131.5 20t128 53.5t120.5 77.5t108 92t91.5 97t71.5 92q17 -8 45.5 -16t52.5 -13q-28 -48 -40.5 -93t-12.5 -85q0 -55 16 -96.5t45.5 -69.5t69.5 -42t88 -14q51 0 105 17t105 45.5
t96.5 65.5t79.5 78t54 82.5t20 78.5q0 45 -21.5 64.5t-55.5 19.5q-51 0 -101.5 -30.5t-90.5 -76t-65 -98.5t-25 -97q0 -40 13 -69q-9 25 -9 54q0 44 25 96t64.5 97t88 75t96.5 30q26 0 42.5 -15.5t16.5 -49.5q0 -42 -20.5 -84.5t-55 -81.5t-79.5 -73t-95 -59.5t-101.5 -40
t-98.5 -14.5q-70 0 -111 35.5t-41 118.5q0 44 12 99.5t47 120.5q17 -2 37 -3.5t37 -1.5q94 0 183 34t152 99q24 -17 54.5 -24t63.5 -7q72 0 137 30t113.5 79t77.5 110t29 124zM2456 837q0 -63 -30.5 -123t-79.5 -107t-111.5 -75.5t-127.5 -28.5q-27 0 -52 6.5t-45 20.5
q46 50 64.5 86.5t18.5 77.5q0 29 -15.5 51t-41.5 22q-22 0 -39.5 -12t-29.5 -31t-18.5 -41t-6.5 -43q0 -26 9.5 -58t29.5 -52q-57 -57 -126.5 -83t-164.5 -26q-19 0 -39 1t-41 3q66 118 130.5 201t130.5 144t135 107.5t143 92.5q-63 -30 -137 -71t-152.5 -103t-158 -149.5
t-152.5 -210.5q-22 4 -35.5 7t-23 5.5t-17.5 5.5t-19 7q34 60 81 127t103.5 132.5t122 125.5t137 105.5t147.5 72.5t155 27q68 0 116.5 -20.5t79.5 -52t45.5 -69.5t14.5 -72zM2078 705q0 -28 -9 -52.5t-22.5 -44.5t-28 -36.5t-24.5 -29.5q-17 18 -26 44.5t-9 48.5q0 23 6 44
t16.5 37.5t24.5 26t31 9.5q14 0 26.5 -13.5t14.5 -33.5zM1114 407q0 -51 -19 -92.5t-51 -71.5t-74 -46.5t-89 -16.5q-49 0 -92 23q9 20 13 38t4 32q0 20 -9 38.5t-30 18.5q-17 0 -26.5 -17.5t-9.5 -36.5q0 -28 14 -48t29 -28q-14 -29 -35.5 -52t-45.5 -41t-48.5 -31.5
t-44.5 -22.5q-48 23 -75 52t-38 51q44 15 80.5 42t62.5 61t40.5 73.5t14.5 80.5q0 34 -11.5 76.5t-34.5 74.5q60 36 117.5 43t108.5 7t96 -14t79 -40.5t54 -65t20 -87.5zM795 271q0 -26 -17 -61q-19 11 -27 30t-8 36q0 11 7 26.5t18 15.5q6 0 11 -5t8.5 -12t5.5 -15.5
t2 -14.5zM666 425q0 -37 -11.5 -75t-34.5 -72.5t-59 -62.5t-85 -45q-22 37 -22 89q0 36 10 77t31 80.5t52.5 75t74.5 62.5q18 -23 31 -58.5t13 -70.5zM607 572q-47 -29 -80 -65.5t-54 -75.5t-30.5 -79.5t-9.5 -77.5q0 -58 25 -111q-20 -5 -37.5 -6.5t-34.5 -1.5
q-40 0 -72.5 14t-55 37t-35 52t-12.5 58t11 58.5t31.5 53t50 38t66.5 14.5q-43 0 -75 -13t-53 -35t-31.5 -51t-10.5 -60q0 -32 12 -63.5t36 -57.5t61.5 -42t88.5 -16q17 0 34.5 2t36.5 5q19 -30 50 -60t61 -44q-40 -14 -93.5 -23t-104.5 -9q-67 0 -128.5 19.5t-108.5 57.5
t-75 93t-28 127q0 75 29.5 137t78.5 106t113 68.5t133 24.5q64 0 118 -16.5t93 -57.5zM2192 1598q0 17 -6 30.5t-15 18.5q-13 8 -35 8q-27 0 -56 -16q-12 -7 -25.5 -18.5t-25.5 -26t-21.5 -30t-14.5 -30.5q-4 -13 -4 -35q0 -15 3.5 -30t11.5 -26q17 -18 43 -18q14 0 27.5 4
t23.5 10q14 8 28.5 23t27 34t22 40t13.5 41q3 10 3 21zM2185 1598q0 -14 -4 -24.5t-6 -17.5q-6 -14 -14.5 -30.5t-19 -31.5t-22.5 -28t-24 -19q-11 -6 -25 -10.5t-27 -4.5q-14 0 -21 7q-12 15 -12 31q0 7 1.5 13.5t3.5 13.5q4 16 15 36t25 38.5t28.5 33.5t25.5 23
q7 5 18 9.5t23 4.5q19 0 28 -17q7 -13 7 -27z" />
    <glyph glyph-name="Ccedilla" unicode="&#xc7;" horiz-adv-x="545" 
d="M803 1010q0 29 -13 37t-30 8q-20 0 -33 -5q-44 -15 -92.5 -47t-95 -71.5t-88.5 -83t-73 -81.5q-11 -1 -21 -1.5t-21 -0.5q-39 0 -77.5 7t-69 22.5t-49.5 39.5t-19 58q0 15 4 29t9 28q4 -15 20 -34.5t41 -36t57 -28t68 -11.5h10q6 0 11 1q27 3 48 12t35 22.5t21 30t7 33.5
q0 21 -11.5 40t-31 32.5t-45 21.5t-53.5 8q-19 0 -41 -3.5t-45 -12.5t-45.5 -24t-41.5 -37q-8 21 -8 46q0 20 7 42.5t23 43.5t42.5 39.5t66.5 32.5q-41 -12 -69 -30.5t-45.5 -40.5t-25.5 -46t-8 -46q0 -14 2.5 -25.5t6.5 -22.5q-8 -20 -11.5 -36.5t-3.5 -30.5
q0 -41 23.5 -68.5t58.5 -43.5t74 -22.5t71 -6.5h10q6 0 11 1q-24 -34 -54.5 -76t-63.5 -89.5t-64.5 -100.5t-56.5 -107.5t-40 -110t-15 -109.5q0 -46 15.5 -86.5t56.5 -62.5q-28 -18 -41 -46t-13 -53q0 -28 15.5 -45t42.5 -17q13 0 29.5 6.5t30.5 17.5t23.5 26.5t9.5 33.5
q0 14 -10 23.5t-25 9.5q-13 0 -27.5 -9t-26.5 -31q12 17 26 24.5t26 7.5t20 -6.5t8 -19.5q0 -15 -8.5 -28t-20 -22.5t-24 -15t-21.5 -5.5q-17 0 -28.5 11.5t-11.5 28.5q0 19 15 43.5t48 58.5q16 -3 31 -3q42 0 82.5 17t76.5 45.5t66.5 66t52.5 78.5t34.5 82t12.5 78
q0 18 -3.5 34.5t-12.5 29t-23.5 20t-35.5 7.5q-38 0 -73.5 -24.5t-64 -60t-48.5 -74.5t-26 -67l7 -4q25 46 44.5 86t41.5 69.5t49 46t66 16.5q35 0 48 -19.5t13 -48.5q0 -30 -10.5 -68.5t-30 -79t-46 -79t-59.5 -68.5t-71 -48.5t-79 -18.5q-23 0 -42.5 9t-36.5 25
q-17 17 -26 43t-9 58q0 78 32.5 158.5t79.5 157.5t98.5 145.5t90.5 122.5l14 20q63 6 126 27.5t115.5 55.5t90.5 78.5t50 96.5zM788 1017q0 -10 -4.5 -21.5t-9.5 -21.5q-17 -24 -44.5 -55.5t-69 -61t-98 -53.5t-130.5 -34q29 37 65 78.5t75.5 79t81 67t80.5 41.5q9 3 16 4
t12 1q14 0 20 -6.5t6 -17.5zM435 947q0 -19 -9 -37t-23 -32t-32 -22.5t-37 -8.5q-32 0 -63.5 9.5t-57.5 25t-45 36t-27 42.5q5 7 17.5 19t33.5 24t49.5 20.5t65.5 8.5q22 0 44.5 -6.5t41 -17.5t30.5 -27t12 -34z" />
    <glyph glyph-name="Egrave" unicode="&#xc8;" horiz-adv-x="1875" 
d="M1997 911q0 35 -14 62t-38.5 45t-59 27t-74.5 9q-52 0 -108.5 -16t-103 -50.5t-76.5 -89t-30 -131.5v-17q0 -8 1 -16q-34 0 -73.5 -6.5t-81 -25.5t-84 -52t-81.5 -87q-31 10 -70 35.5t-73.5 66.5t-58 99t-23.5 134q0 62 27 120.5t76 105.5t117.5 78t150.5 38
q-29 0 -69 -8.5t-82 -26t-83.5 -45t-74.5 -66t-53 -88.5t-20 -112q0 -87 25.5 -148t61.5 -100.5t75.5 -61.5t66.5 -32q-45 -72 -64.5 -135.5t-19.5 -118.5q0 -72 26.5 -125.5t64.5 -85.5q-55 -45 -121.5 -78.5t-138.5 -56t-147.5 -33.5t-148.5 -11q-107 0 -208.5 29t-181 85
t-128 139t-48.5 191q0 99 41 182t110 142t159.5 92t189.5 33q66 0 130 -21t114 -60.5t81 -96t31 -127.5q0 -69 -28.5 -125.5t-73.5 -97t-101.5 -62.5t-111.5 -22q-40 0 -84.5 11.5t-82 35t-62 59.5t-24.5 84q0 41 12 71t31.5 51t43 34.5t47 21.5t44.5 11t34 4h-14
q-50 0 -89 -16.5t-66 -43.5t-41 -61.5t-14 -71.5q0 -51 24 -89t62 -63.5t85.5 -38.5t94.5 -13q69 0 130 25.5t106.5 68t72.5 99t27 119.5q0 76 -31.5 136.5t-84 102.5t-121.5 64t-143 22q-107 0 -200.5 -36t-163 -99t-110 -147.5t-40.5 -181.5q0 -74 23.5 -137t64 -114
t95 -90t117.5 -65t130.5 -39.5t134.5 -13.5q99 0 192.5 20t171.5 49.5t135.5 62.5t84.5 59q58 -44 127 -62.5t139 -18.5q75 0 143 16.5t120 48.5t83 80t31 111q0 41 -16 72t-42.5 51.5t-61.5 31t-73 10.5q-40 0 -83.5 -12t-86.5 -41q-53 -36 -87 -68.5t-60 -63.5t-51 -61.5
t-60 -61.5q-24 31 -43.5 80.5t-19.5 113.5q0 51 16 108t54 120q39 -12 79 -17.5t82 -5.5q76 0 152 17.5t145 47.5t128.5 69.5t103 84t68.5 91t25 90.5zM1985 911q0 -41 -24 -85.5t-66.5 -87.5t-100.5 -81.5t-126 -68t-143 -46.5t-152 -17q-38 0 -76 4.5t-76 15.5
q33 49 71 82.5t75.5 54.5t71.5 30.5t59 10.5q10 -33 33.5 -50t45.5 -17q10 0 22 5t12 16q0 7 -5.5 16.5t-17 18.5t-30.5 15.5t-46 6.5q0 80 31.5 136.5t79.5 92.5t104 53t106 17q67 0 109.5 -29.5t42.5 -92.5zM1603 679q-3 -14 -21 -14t-40 14.5t-30 43.5q19 0 35.5 -4
t29 -10.5t19.5 -14.5t7 -15zM1814 247q-5 -61 -37 -105t-81 -72.5t-110.5 -42t-124.5 -13.5q-72 0 -138 21t-109 66q33 31 62.5 65.5t59.5 68t62.5 64.5t70.5 57q39 26 82.5 39t84.5 13q83 0 128 -41.5t50 -119.5zM1872 1114l-94 182q-23 7 -29 17.5t-10 10.5q-2 0 -5 -3
l131 -214z" />
    <glyph glyph-name="Eacute" unicode="&#xc9;" horiz-adv-x="1875" 
d="M1997 911q0 35 -14 62t-38.5 45t-59 27t-74.5 9q-52 0 -108.5 -16t-103 -50.5t-76.5 -89t-30 -131.5v-17q0 -8 1 -16q-34 0 -73.5 -6.5t-81 -25.5t-84 -52t-81.5 -87q-31 10 -70 35.5t-73.5 66.5t-58 99t-23.5 134q0 62 27 120.5t76 105.5t117.5 78t150.5 38
q-29 0 -69 -8.5t-82 -26t-83.5 -45t-74.5 -66t-53 -88.5t-20 -112q0 -87 25.5 -148t61.5 -100.5t75.5 -61.5t66.5 -32q-45 -72 -64.5 -135.5t-19.5 -118.5q0 -72 26.5 -125.5t64.5 -85.5q-55 -45 -121.5 -78.5t-138.5 -56t-147.5 -33.5t-148.5 -11q-107 0 -208.5 29t-181 85
t-128 139t-48.5 191q0 99 41 182t110 142t159.5 92t189.5 33q66 0 130 -21t114 -60.5t81 -96t31 -127.5q0 -69 -28.5 -125.5t-73.5 -97t-101.5 -62.5t-111.5 -22q-40 0 -84.5 11.5t-82 35t-62 59.5t-24.5 84q0 41 12 71t31.5 51t43 34.5t47 21.5t44.5 11t34 4h-14
q-50 0 -89 -16.5t-66 -43.5t-41 -61.5t-14 -71.5q0 -51 24 -89t62 -63.5t85.5 -38.5t94.5 -13q69 0 130 25.5t106.5 68t72.5 99t27 119.5q0 76 -31.5 136.5t-84 102.5t-121.5 64t-143 22q-107 0 -200.5 -36t-163 -99t-110 -147.5t-40.5 -181.5q0 -74 23.5 -137t64 -114
t95 -90t117.5 -65t130.5 -39.5t134.5 -13.5q99 0 192.5 20t171.5 49.5t135.5 62.5t84.5 59q58 -44 127 -62.5t139 -18.5q75 0 143 16.5t120 48.5t83 80t31 111q0 41 -16 72t-42.5 51.5t-61.5 31t-73 10.5q-40 0 -83.5 -12t-86.5 -41q-53 -36 -87 -68.5t-60 -63.5t-51 -61.5
t-60 -61.5q-24 31 -43.5 80.5t-19.5 113.5q0 51 16 108t54 120q39 -12 79 -17.5t82 -5.5q76 0 152 17.5t145 47.5t128.5 69.5t103 84t68.5 91t25 90.5zM1985 911q0 -41 -24 -85.5t-66.5 -87.5t-100.5 -81.5t-126 -68t-143 -46.5t-152 -17q-38 0 -76 4.5t-76 15.5
q33 49 71 82.5t75.5 54.5t71.5 30.5t59 10.5q10 -33 33.5 -50t45.5 -17q10 0 22 5t12 16q0 7 -5.5 16.5t-17 18.5t-30.5 15.5t-46 6.5q0 80 31.5 136.5t79.5 92.5t104 53t106 17q67 0 109.5 -29.5t42.5 -92.5zM1603 679q-3 -14 -21 -14t-40 14.5t-30 43.5q19 0 35.5 -4
t29 -10.5t19.5 -14.5t7 -15zM1814 247q-5 -61 -37 -105t-81 -72.5t-110.5 -42t-124.5 -13.5q-72 0 -138 21t-109 66q33 31 62.5 65.5t59.5 68t62.5 64.5t70.5 57q39 26 82.5 39t84.5 13q83 0 128 -41.5t50 -119.5zM2031 1322q-2 2 -4 2q-3 0 -6 -4t-7.5 -8.5t-10.5 -8
t-16 -3.5l-123 -189l7 -7z" />
    <glyph glyph-name="Ecircumflex" unicode="&#xca;" horiz-adv-x="1875" 
d="M1997 911q0 35 -14 62t-38.5 45t-59 27t-74.5 9q-52 0 -108.5 -16t-103 -50.5t-76.5 -89t-30 -131.5v-17q0 -8 1 -16q-34 0 -73.5 -6.5t-81 -25.5t-84 -52t-81.5 -87q-31 10 -70 35.5t-73.5 66.5t-58 99t-23.5 134q0 62 27 120.5t76 105.5t117.5 78t150.5 38
q-29 0 -69 -8.5t-82 -26t-83.5 -45t-74.5 -66t-53 -88.5t-20 -112q0 -87 25.5 -148t61.5 -100.5t75.5 -61.5t66.5 -32q-45 -72 -64.5 -135.5t-19.5 -118.5q0 -72 26.5 -125.5t64.5 -85.5q-55 -45 -121.5 -78.5t-138.5 -56t-147.5 -33.5t-148.5 -11q-107 0 -208.5 29t-181 85
t-128 139t-48.5 191q0 99 41 182t110 142t159.5 92t189.5 33q66 0 130 -21t114 -60.5t81 -96t31 -127.5q0 -69 -28.5 -125.5t-73.5 -97t-101.5 -62.5t-111.5 -22q-40 0 -84.5 11.5t-82 35t-62 59.5t-24.5 84q0 41 12 71t31.5 51t43 34.5t47 21.5t44.5 11t34 4h-14
q-50 0 -89 -16.5t-66 -43.5t-41 -61.5t-14 -71.5q0 -51 24 -89t62 -63.5t85.5 -38.5t94.5 -13q69 0 130 25.5t106.5 68t72.5 99t27 119.5q0 76 -31.5 136.5t-84 102.5t-121.5 64t-143 22q-107 0 -200.5 -36t-163 -99t-110 -147.5t-40.5 -181.5q0 -74 23.5 -137t64 -114
t95 -90t117.5 -65t130.5 -39.5t134.5 -13.5q99 0 192.5 20t171.5 49.5t135.5 62.5t84.5 59q58 -44 127 -62.5t139 -18.5q75 0 143 16.5t120 48.5t83 80t31 111q0 41 -16 72t-42.5 51.5t-61.5 31t-73 10.5q-40 0 -83.5 -12t-86.5 -41q-53 -36 -87 -68.5t-60 -63.5t-51 -61.5
t-60 -61.5q-24 31 -43.5 80.5t-19.5 113.5q0 51 16 108t54 120q39 -12 79 -17.5t82 -5.5q76 0 152 17.5t145 47.5t128.5 69.5t103 84t68.5 91t25 90.5zM1985 911q0 -41 -24 -85.5t-66.5 -87.5t-100.5 -81.5t-126 -68t-143 -46.5t-152 -17q-38 0 -76 4.5t-76 15.5
q33 49 71 82.5t75.5 54.5t71.5 30.5t59 10.5q10 -33 33.5 -50t45.5 -17q10 0 22 5t12 16q0 7 -5.5 16.5t-17 18.5t-30.5 15.5t-46 6.5q0 80 31.5 136.5t79.5 92.5t104 53t106 17q67 0 109.5 -29.5t42.5 -92.5zM1603 679q-3 -14 -21 -14t-40 14.5t-30 43.5q19 0 35.5 -4
t29 -10.5t19.5 -14.5t7 -15zM1814 247q-5 -61 -37 -105t-81 -72.5t-110.5 -42t-124.5 -13.5q-72 0 -138 21t-109 66q33 31 62.5 65.5t59.5 68t62.5 64.5t70.5 57q39 26 82.5 39t84.5 13q83 0 128 -41.5t50 -119.5zM2018 1254l-11 8q-30 -31 -58 -54t-57 -41t-59.5 -31
t-65.5 -23l13 -8q17 2 35 4.5t37.5 8.5t40.5 16t45 27q8 -14 15.5 -31t21.5 -25q5 0 11 3q-4 14 -8.5 28t-4.5 31q0 19 9.5 40t35.5 47z" />
    <glyph glyph-name="Edieresis" unicode="&#xcb;" horiz-adv-x="1875" 
d="M1997 911q0 35 -14 62t-38.5 45t-59 27t-74.5 9q-52 0 -108.5 -16t-103 -50.5t-76.5 -89t-30 -131.5v-17q0 -8 1 -16q-34 0 -73.5 -6.5t-81 -25.5t-84 -52t-81.5 -87q-31 10 -70 35.5t-73.5 66.5t-58 99t-23.5 134q0 62 27 120.5t76 105.5t117.5 78t150.5 38
q-29 0 -69 -8.5t-82 -26t-83.5 -45t-74.5 -66t-53 -88.5t-20 -112q0 -87 25.5 -148t61.5 -100.5t75.5 -61.5t66.5 -32q-45 -72 -64.5 -135.5t-19.5 -118.5q0 -72 26.5 -125.5t64.5 -85.5q-55 -45 -121.5 -78.5t-138.5 -56t-147.5 -33.5t-148.5 -11q-107 0 -208.5 29t-181 85
t-128 139t-48.5 191q0 99 41 182t110 142t159.5 92t189.5 33q66 0 130 -21t114 -60.5t81 -96t31 -127.5q0 -69 -28.5 -125.5t-73.5 -97t-101.5 -62.5t-111.5 -22q-40 0 -84.5 11.5t-82 35t-62 59.5t-24.5 84q0 41 12 71t31.5 51t43 34.5t47 21.5t44.5 11t34 4h-14
q-50 0 -89 -16.5t-66 -43.5t-41 -61.5t-14 -71.5q0 -51 24 -89t62 -63.5t85.5 -38.5t94.5 -13q69 0 130 25.5t106.5 68t72.5 99t27 119.5q0 76 -31.5 136.5t-84 102.5t-121.5 64t-143 22q-107 0 -200.5 -36t-163 -99t-110 -147.5t-40.5 -181.5q0 -74 23.5 -137t64 -114
t95 -90t117.5 -65t130.5 -39.5t134.5 -13.5q99 0 192.5 20t171.5 49.5t135.5 62.5t84.5 59q58 -44 127 -62.5t139 -18.5q75 0 143 16.5t120 48.5t83 80t31 111q0 41 -16 72t-42.5 51.5t-61.5 31t-73 10.5q-40 0 -83.5 -12t-86.5 -41q-53 -36 -87 -68.5t-60 -63.5t-51 -61.5
t-60 -61.5q-24 31 -43.5 80.5t-19.5 113.5q0 51 16 108t54 120q39 -12 79 -17.5t82 -5.5q76 0 152 17.5t145 47.5t128.5 69.5t103 84t68.5 91t25 90.5zM1985 911q0 -41 -24 -85.5t-66.5 -87.5t-100.5 -81.5t-126 -68t-143 -46.5t-152 -17q-38 0 -76 4.5t-76 15.5
q33 49 71 82.5t75.5 54.5t71.5 30.5t59 10.5q10 -33 33.5 -50t45.5 -17q10 0 22 5t12 16q0 7 -5.5 16.5t-17 18.5t-30.5 15.5t-46 6.5q0 80 31.5 136.5t79.5 92.5t104 53t106 17q67 0 109.5 -29.5t42.5 -92.5zM1603 679q-3 -14 -21 -14t-40 14.5t-30 43.5q19 0 35.5 -4
t29 -10.5t19.5 -14.5t7 -15zM1814 247q-5 -61 -37 -105t-81 -72.5t-110.5 -42t-124.5 -13.5q-72 0 -138 21t-109 66q33 31 62.5 65.5t59.5 68t62.5 64.5t70.5 57q39 26 82.5 39t84.5 13q83 0 128 -41.5t50 -119.5zM2012 1186q0 9 -5 13t-13 4q-12 0 -22 -6
q-28 -16 -38.5 -33t-12.5 -28q0 -20 3.5 -27.5t13.5 -7.5q2 0 12 2q22 14 37.5 30t20.5 35q4 9 4 18zM1888 1189q0 17 -17 17q-9 0 -19 -5q-52 -28 -62 -65q-2 -8 -2 -12q0 -24 20 -24q7 0 18 6q22 14 37.5 33t20.5 33q4 8 4 17z" />
    <glyph glyph-name="Igrave" unicode="&#xcc;" horiz-adv-x="1400" 
d="M2041 1200q-5 0 -12 -1l-14 -2q-21 -1 -78 -17.5t-131 -48t-154 -78t-147 -108t-110.5 -138t-43.5 -167.5q0 -27 7.5 -53t23.5 -46.5t40.5 -33.5t57.5 -13q-53 -94 -110.5 -183.5t-119.5 -187.5q-61 -98 -135.5 -178t-152.5 -137t-154.5 -88.5t-142.5 -31.5
q-67 0 -118 36.5t-75 115.5q40 18 70.5 32.5t56.5 31t49 36.5t48 47q11 -6 23.5 -7.5t25.5 -1.5q48 0 101 29.5t104 78.5t97.5 112.5t81.5 131.5t56 135t21 123q0 113 -54 176.5t-145 63.5q-93 0 -173.5 -41t-147 -109t-118.5 -155t-87.5 -179t-54 -181.5t-18.5 -161.5
q0 -92 24 -161q-26 -11 -52 -16.5t-50 -5.5q-47 0 -87 18.5t-69 51t-46 77.5t-17 99q0 50 16 105t51 114q-39 -51 -58.5 -110t-19.5 -117q0 -51 14.5 -97t43 -81t70 -56t95.5 -21t120 24q31 -81 89 -117.5t133 -36.5q72 0 154.5 31.5t165 88t159.5 134t139 169.5
q32 47 65 98t64.5 102.5t61.5 102t56 97.5q46 6 83 28t63.5 56t43 78t21.5 93q-9 -45 -25 -84t-40.5 -70t-58.5 -52t-79 -31q64 121 121.5 226.5t116 192.5t123 154.5t142.5 114.5zM2003 1185q-87 -47 -158 -121t-131.5 -164t-115.5 -191t-111 -200q-47 0 -72.5 30t-25.5 75
q0 67 23.5 127.5t63 113t90 97.5t105 81.5t108.5 65t99.5 47.5t78.5 29t46 10zM1189 594q0 -67 -21.5 -137.5t-57.5 -137.5t-82 -126.5t-95.5 -104t-98.5 -70.5t-90 -25q-19 0 -32 10q56 62 104 122.5t82.5 120.5t54 119.5t19.5 120.5q0 35 -17 52t-43 17q-44 0 -81 -24
t-67 -62t-53 -85t-39 -94t-24 -88.5t-8 -67.5q0 -42 10 -76.5t30 -57.5q-42 -45 -94 -81.5t-121 -60.5q-10 31 -14 64t-4 67q0 93 23 189t63.5 185t95 167t116.5 136t128.5 91.5t132.5 33.5q39 0 72.5 -12.5t58 -37.5t38.5 -61.5t14 -85.5zM950 485q-2 -62 -20.5 -119.5
t-51 -113.5t-78.5 -113t-102 -118q-12 15 -17.5 37.5t-5.5 50.5q0 23 7.5 63t22 85.5t35.5 92.5t48 85t59.5 62t69.5 24q13 0 22.5 -6t10.5 -30zM1986 1244l-94 182q-23 7 -29 17.5t-10 10.5q-2 0 -5 -3l131 -214z" />
    <glyph glyph-name="Iacute" unicode="&#xcd;" horiz-adv-x="1400" 
d="M2041 1200q-5 0 -12 -1l-14 -2q-21 -1 -78 -17.5t-131 -48t-154 -78t-147 -108t-110.5 -138t-43.5 -167.5q0 -27 7.5 -53t23.5 -46.5t40.5 -33.5t57.5 -13q-53 -94 -110.5 -183.5t-119.5 -187.5q-61 -98 -135.5 -178t-152.5 -137t-154.5 -88.5t-142.5 -31.5
q-67 0 -118 36.5t-75 115.5q40 18 70.5 32.5t56.5 31t49 36.5t48 47q11 -6 23.5 -7.5t25.5 -1.5q48 0 101 29.5t104 78.5t97.5 112.5t81.5 131.5t56 135t21 123q0 113 -54 176.5t-145 63.5q-93 0 -173.5 -41t-147 -109t-118.5 -155t-87.5 -179t-54 -181.5t-18.5 -161.5
q0 -92 24 -161q-26 -11 -52 -16.5t-50 -5.5q-47 0 -87 18.5t-69 51t-46 77.5t-17 99q0 50 16 105t51 114q-39 -51 -58.5 -110t-19.5 -117q0 -51 14.5 -97t43 -81t70 -56t95.5 -21t120 24q31 -81 89 -117.5t133 -36.5q72 0 154.5 31.5t165 88t159.5 134t139 169.5
q32 47 65 98t64.5 102.5t61.5 102t56 97.5q46 6 83 28t63.5 56t43 78t21.5 93q-9 -45 -25 -84t-40.5 -70t-58.5 -52t-79 -31q64 121 121.5 226.5t116 192.5t123 154.5t142.5 114.5zM2003 1185q-87 -47 -158 -121t-131.5 -164t-115.5 -191t-111 -200q-47 0 -72.5 30t-25.5 75
q0 67 23.5 127.5t63 113t90 97.5t105 81.5t108.5 65t99.5 47.5t78.5 29t46 10zM1189 594q0 -67 -21.5 -137.5t-57.5 -137.5t-82 -126.5t-95.5 -104t-98.5 -70.5t-90 -25q-19 0 -32 10q56 62 104 122.5t82.5 120.5t54 119.5t19.5 120.5q0 35 -17 52t-43 17q-44 0 -81 -24
t-67 -62t-53 -85t-39 -94t-24 -88.5t-8 -67.5q0 -42 10 -76.5t30 -57.5q-42 -45 -94 -81.5t-121 -60.5q-10 31 -14 64t-4 67q0 93 23 189t63.5 185t95 167t116.5 136t128.5 91.5t132.5 33.5q39 0 72.5 -12.5t58 -37.5t38.5 -61.5t14 -85.5zM950 485q-2 -62 -20.5 -119.5
t-51 -113.5t-78.5 -113t-102 -118q-12 15 -17.5 37.5t-5.5 50.5q0 23 7.5 63t22 85.5t35.5 92.5t48 85t59.5 62t69.5 24q13 0 22.5 -6t10.5 -30zM2176 1450q-2 2 -4 2q-3 0 -6 -4t-7.5 -8.5t-10.5 -8t-16 -3.5l-123 -189l7 -7z" />
    <glyph glyph-name="Icircumflex" unicode="&#xce;" horiz-adv-x="1400" 
d="M2041 1200q-5 0 -12 -1l-14 -2q-21 -1 -78 -17.5t-131 -48t-154 -78t-147 -108t-110.5 -138t-43.5 -167.5q0 -27 7.5 -53t23.5 -46.5t40.5 -33.5t57.5 -13q-53 -94 -110.5 -183.5t-119.5 -187.5q-61 -98 -135.5 -178t-152.5 -137t-154.5 -88.5t-142.5 -31.5
q-67 0 -118 36.5t-75 115.5q40 18 70.5 32.5t56.5 31t49 36.5t48 47q11 -6 23.5 -7.5t25.5 -1.5q48 0 101 29.5t104 78.5t97.5 112.5t81.5 131.5t56 135t21 123q0 113 -54 176.5t-145 63.5q-93 0 -173.5 -41t-147 -109t-118.5 -155t-87.5 -179t-54 -181.5t-18.5 -161.5
q0 -92 24 -161q-26 -11 -52 -16.5t-50 -5.5q-47 0 -87 18.5t-69 51t-46 77.5t-17 99q0 50 16 105t51 114q-39 -51 -58.5 -110t-19.5 -117q0 -51 14.5 -97t43 -81t70 -56t95.5 -21t120 24q31 -81 89 -117.5t133 -36.5q72 0 154.5 31.5t165 88t159.5 134t139 169.5
q32 47 65 98t64.5 102.5t61.5 102t56 97.5q46 6 83 28t63.5 56t43 78t21.5 93q-9 -45 -25 -84t-40.5 -70t-58.5 -52t-79 -31q64 121 121.5 226.5t116 192.5t123 154.5t142.5 114.5zM2003 1185q-87 -47 -158 -121t-131.5 -164t-115.5 -191t-111 -200q-47 0 -72.5 30t-25.5 75
q0 67 23.5 127.5t63 113t90 97.5t105 81.5t108.5 65t99.5 47.5t78.5 29t46 10zM1189 594q0 -67 -21.5 -137.5t-57.5 -137.5t-82 -126.5t-95.5 -104t-98.5 -70.5t-90 -25q-19 0 -32 10q56 62 104 122.5t82.5 120.5t54 119.5t19.5 120.5q0 35 -17 52t-43 17q-44 0 -81 -24
t-67 -62t-53 -85t-39 -94t-24 -88.5t-8 -67.5q0 -42 10 -76.5t30 -57.5q-42 -45 -94 -81.5t-121 -60.5q-10 31 -14 64t-4 67q0 93 23 189t63.5 185t95 167t116.5 136t128.5 91.5t132.5 33.5q39 0 72.5 -12.5t58 -37.5t38.5 -61.5t14 -85.5zM950 485q-2 -62 -20.5 -119.5
t-51 -113.5t-78.5 -113t-102 -118q-12 15 -17.5 37.5t-5.5 50.5q0 23 7.5 63t22 85.5t35.5 92.5t48 85t59.5 62t69.5 24q13 0 22.5 -6t10.5 -30zM2100 1382l-11 8q-30 -31 -58 -54t-57 -41t-59.5 -31t-65.5 -23l13 -8q17 2 35 4.5t37.5 8.5t40.5 16t45 27q8 -14 15.5 -31
t21.5 -25q5 0 11 3q-4 14 -8.5 28t-4.5 31q0 19 9.5 40t35.5 47z" />
    <glyph glyph-name="Idieresis" unicode="&#xcf;" horiz-adv-x="1400" 
d="M2041 1200q-5 0 -12 -1l-14 -2q-21 -1 -78 -17.5t-131 -48t-154 -78t-147 -108t-110.5 -138t-43.5 -167.5q0 -27 7.5 -53t23.5 -46.5t40.5 -33.5t57.5 -13q-53 -94 -110.5 -183.5t-119.5 -187.5q-61 -98 -135.5 -178t-152.5 -137t-154.5 -88.5t-142.5 -31.5
q-67 0 -118 36.5t-75 115.5q40 18 70.5 32.5t56.5 31t49 36.5t48 47q11 -6 23.5 -7.5t25.5 -1.5q48 0 101 29.5t104 78.5t97.5 112.5t81.5 131.5t56 135t21 123q0 113 -54 176.5t-145 63.5q-93 0 -173.5 -41t-147 -109t-118.5 -155t-87.5 -179t-54 -181.5t-18.5 -161.5
q0 -92 24 -161q-26 -11 -52 -16.5t-50 -5.5q-47 0 -87 18.5t-69 51t-46 77.5t-17 99q0 50 16 105t51 114q-39 -51 -58.5 -110t-19.5 -117q0 -51 14.5 -97t43 -81t70 -56t95.5 -21t120 24q31 -81 89 -117.5t133 -36.5q72 0 154.5 31.5t165 88t159.5 134t139 169.5
q32 47 65 98t64.5 102.5t61.5 102t56 97.5q46 6 83 28t63.5 56t43 78t21.5 93q-9 -45 -25 -84t-40.5 -70t-58.5 -52t-79 -31q64 121 121.5 226.5t116 192.5t123 154.5t142.5 114.5zM2003 1185q-87 -47 -158 -121t-131.5 -164t-115.5 -191t-111 -200q-47 0 -72.5 30t-25.5 75
q0 67 23.5 127.5t63 113t90 97.5t105 81.5t108.5 65t99.5 47.5t78.5 29t46 10zM1189 594q0 -67 -21.5 -137.5t-57.5 -137.5t-82 -126.5t-95.5 -104t-98.5 -70.5t-90 -25q-19 0 -32 10q56 62 104 122.5t82.5 120.5t54 119.5t19.5 120.5q0 35 -17 52t-43 17q-44 0 -81 -24
t-67 -62t-53 -85t-39 -94t-24 -88.5t-8 -67.5q0 -42 10 -76.5t30 -57.5q-42 -45 -94 -81.5t-121 -60.5q-10 31 -14 64t-4 67q0 93 23 189t63.5 185t95 167t116.5 136t128.5 91.5t132.5 33.5q39 0 72.5 -12.5t58 -37.5t38.5 -61.5t14 -85.5zM950 485q-2 -62 -20.5 -119.5
t-51 -113.5t-78.5 -113t-102 -118q-12 15 -17.5 37.5t-5.5 50.5q0 23 7.5 63t22 85.5t35.5 92.5t48 85t59.5 62t69.5 24q13 0 22.5 -6t10.5 -30zM2130 1315q0 9 -5 13t-13 4q-12 0 -22 -6q-28 -16 -38.5 -33t-12.5 -28q0 -20 3.5 -27.5t13.5 -7.5q2 0 12 2q22 14 37.5 30
t20.5 35q4 9 4 18zM2006 1318q0 17 -17 17q-9 0 -19 -5q-52 -28 -62 -65q-2 -8 -2 -12q0 -24 20 -24q7 0 18 6q22 14 37.5 33t20.5 33q4 8 4 17z" />
    <glyph glyph-name="Eth" unicode="&#xd0;" horiz-adv-x="981" 
d="M1083 688q0 42 -10 85t-28.5 82t-45.5 72.5t-61 57.5q19 25 38.5 38.5t33.5 16.5q-1 2 -2 2.5l-1 0.5q-17 -5 -37 -18.5t-40 -35.5q-63 45 -157 45q-50 0 -109.5 -15t-120 -43t-117 -67t-100 -86t-70 -102t-26.5 -114q0 -26 9.5 -53t26.5 -49.5t42 -36.5t57 -14
q38 0 75 27t66.5 66.5t49.5 85t25 83.5h-7q-5 -33 -24 -76.5t-48 -82.5t-64.5 -65.5t-72.5 -26.5q-20 0 -41 10t-37.5 27t-27 39t-10.5 46q0 64 25 121t66.5 105t95 86.5t109.5 65.5t111 41.5t99 14.5q41 0 80 -11t80 -38q-10 -11 -23.5 -28t-29 -37t-31 -42.5t-28.5 -43.5
l-200 -327q-38 -35 -90.5 -54.5t-106.5 -19.5q-39 0 -75 12t-63 35.5t-43.5 56.5t-16.5 75q0 40 16 83t41.5 83.5t58 74t65.5 54.5l-4 7q-36 -21 -70.5 -56.5t-62 -79t-44 -91t-16.5 -91.5q0 -32 12 -66.5t37.5 -63t64 -46.5t92.5 -18q35 0 79 11.5t97 39.5l-102 -168
q-23 -31 -45.5 -66t-48 -68t-54.5 -60t-66 -42q-46 8 -85 16.5t-68 8.5q-22 0 -36 -7q-11 -6 -11 -15q0 -8 7 -16t18 -13q11 -6 25 -8.5t29 -2.5q26 0 53 6t53 16q47 -8 92 -14.5t91 -6.5q85 0 166.5 26t154.5 73t134.5 111.5t106.5 141t70 162t25 174.5zM1037 723
q0 -69 -21.5 -148t-60.5 -158t-93.5 -152t-121 -129.5t-143 -90t-158.5 -33.5q-48 0 -89.5 7.5t-73.5 12.5q43 19 78 45.5t64 57t54.5 63t50.5 63.5q38 48 72 106.5t66 108.5q17 14 40 25t37 19q10 3 19 5t18 2q32 0 55.5 -20t23.5 -60q0 -12 -7 -24t-18.5 -21t-25 -14.5
t-26.5 -5.5q-19 0 -32 7v-11q13 -9 32 -9q17 0 35 7t33 21t25 33.5t10 45.5q-6 47 -33.5 66t-61.5 19q-27 0 -53.5 -10t-44.5 -24q12 22 24 41t23 39.5t23 43t24 50.5q10 24 28.5 61.5t39.5 77.5t40.5 74.5t33.5 52.5q27 -17 48 -44.5t35.5 -60.5t22.5 -69t8 -70zM225 25
q-26 -8 -50.5 -10.5t-41.5 -2.5q-16 0 -24 2q-11 2 -18 7.5t-7 10.5q0 4 4 7.5t13 3.5h4q14 0 31.5 -2.5t34.5 -5.5t31.5 -6t22.5 -4z" />
    <glyph glyph-name="Ntilde" unicode="&#xd1;" horiz-adv-x="2375" 
d="M5805 905q0 93 -40.5 182t-120.5 159t-198 113t-273 43q-65 0 -135 -8.5t-148 -26.5q-53 81 -120.5 138t-145.5 92t-164.5 51t-178.5 16q-88 0 -179 -13t-182 -36t-179.5 -55t-170.5 -70q-248 -114 -451 -252.5t-368 -301.5t-296.5 -350.5t-236.5 -400.5q0 123 1.5 243
t10 228t27 198t52.5 153q-15 -23 -28 -39t-24.5 -28.5t-22.5 -21.5t-24 -17q-44 -28 -84 -40t-75 -12q-58 0 -107 28.5t-91.5 74t-79.5 103.5t-72.5 117.5t-70 114t-70.5 94.5q-75 82 -167 147t-193 110.5t-207 70t-209 24.5q-90 0 -174 -24t-148.5 -72t-103 -121
t-38.5 -171q0 -47 10 -96q-86 -24 -167 -75.5t-143.5 -123.5t-100 -161.5t-37.5 -188.5q0 -131 44.5 -241t119.5 -198.5t174.5 -155.5t209.5 -111.5t224.5 -67t219.5 -22.5q148 0 284.5 31.5t260.5 89t235.5 138.5t210 179.5t182.5 212t153 236.5q-14 -43 -21.5 -104
t-12 -132.5t-6.5 -148.5t-4 -151t-5.5 -141t-9.5 -118q106 234 250 449.5t323.5 403.5t395 344t464.5 272q72 33 156 64t175.5 54.5t186.5 37.5t189 14q84 0 164.5 -14t154.5 -46.5t139.5 -85t118.5 -129.5q-39 -9 -102 -34.5t-134 -65.5t-143.5 -93.5t-130.5 -118.5
t-94.5 -139.5t-36.5 -156.5q0 -52 16 -99t47.5 -83t79 -57.5t109.5 -21.5q70 0 135.5 21t123 58.5t104.5 89t81 113t53 130t19 140.5t-19 148t-61 154q74 21 142.5 30.5t132.5 9.5q74 0 148 -14.5t142 -42.5t126.5 -69t102 -94t68 -117.5t24.5 -139.5q0 -52 -14 -103.5
t-43.5 -100t-75.5 -93t-109 -81.5l5 -5q60 34 107 77.5t79 92.5t48.5 102t16.5 108zM4947 1061q-6 -114 -44.5 -214t-102.5 -175t-150 -118t-186 -43q-48 0 -89 15t-71 44.5t-46.5 73t-16.5 99.5q0 76 32 145t84.5 129.5t119.5 112.5t137 92.5t136.5 70t118.5 45.5
q42 -69 60 -138.5t18 -138.5zM2254 920q-60 -117 -142 -234.5t-182.5 -226.5t-218 -204t-249 -165t-275 -110.5t-295.5 -40.5q-118 0 -236.5 23t-227 67.5t-202.5 110t-163 150t-108.5 187.5t-39.5 222q0 101 34.5 187t92.5 153t135 114t161 70q19 -74 58 -137.5
t91.5 -117.5t115.5 -97t129.5 -75.5t134 -53.5t129.5 -30q-63 15 -129.5 41.5t-131 61.5t-124.5 79.5t-108.5 97t-83 113t-49.5 126.5q25 8 59 11.5t75 3.5q72 0 147.5 -15t147 -44t135 -72.5t111 -100.5t75 -127t27.5 -153q0 -89 -35.5 -159t-96.5 -119t-143 -75t-175 -26
q-74 0 -143 22.5t-129 65t-108.5 103t-80.5 137.5q27 -78 74 -141.5t108.5 -108.5t134 -70t151.5 -25q92 0 176.5 26t149.5 76t104 122.5t39 165.5q0 90 -26 166t-72.5 136.5t-109.5 106t-137.5 76t-157 46t-167.5 15.5q-37 0 -72 -3t-68 -11q-5 26 -8 50t-3 48
q0 85 32.5 152t90.5 112.5t137.5 69.5t172.5 24q74 0 154.5 -16t164 -48.5t168.5 -82t168 -115.5q66 -53 114.5 -119.5t89.5 -135.5t80 -135t86 -117.5t108 -83t145 -31.5q48 0 96.5 20.5t94.5 67.5zM2562 1311l-3 3q-26 -10 -50 -10t-46 7.5t-43.5 17t-43 17t-44.5 7.5
q-42 0 -93 -42v-7q17 16 34 22t36 6q21 0 43.5 -5.5t46 -12.5t47.5 -12.5t49 -5.5q17 0 33.5 3.5t33.5 11.5z" />
    <glyph glyph-name="Ograve" unicode="&#xd2;" horiz-adv-x="1350" 
d="M2101 1247q0 85 -30.5 154t-85.5 118t-132 75.5t-170 26.5q-37 0 -79.5 -9.5t-85 -28t-82 -45.5t-69.5 -61.5t-48 -77.5t-18 -92q0 -42 13.5 -82.5t40.5 -71.5t66.5 -50t91.5 -19q55 0 123 25q-27 -10 -51.5 -14t-47.5 -4q-49 0 -87 18.5t-64.5 49.5t-40 70t-13.5 81
q0 71 35 125.5t90 91.5t121 56t129 19q73 0 141 -25.5t120.5 -71t83.5 -108t31 -136.5q0 -59 -19.5 -115.5t-53.5 -108t-81 -95t-102 -75t-115.5 -49.5t-122.5 -18q2 15 3.5 29.5t1.5 28.5q0 44 -11.5 81t-33 63.5t-52 41t-68.5 14.5q-64 0 -142 -44q-61 0 -139.5 -22.5
t-167.5 -73t-184 -132.5t-189 -201q-56 -21 -123 -55.5t-134.5 -79.5t-130.5 -99t-112 -116t-78.5 -129.5t-29.5 -138.5q0 -105 46.5 -189.5t122 -143.5t170.5 -91t192 -32q64 0 132.5 14t134.5 40.5t124.5 66t103 89.5t70.5 110.5t26 130.5q0 39 -11 76.5t-34 70.5
q39 34 83.5 71.5t91 81t93.5 94.5t90.5 114.5t82 140t68.5 169.5q118 0 213.5 42t162.5 109t103.5 150.5t36.5 165.5zM1336 961q0 -20 -14.5 -46.5t-52.5 -56.5q-26 -21 -57 -41.5t-70.5 -41.5t-89.5 -43t-114 -45q99 123 186.5 199t158.5 114q7 3 15 3q15 0 26.5 -11
t11.5 -31zM1563 893q0 -40 -14 -93q-47 2 -75.5 14.5t-55.5 39.5q0 27 -8.5 40.5t-16.5 13.5q-9 0 -9 -15q0 -8 4 -21.5t15 -31.5q-7 -45 -26.5 -100.5t-50 -112.5t-71.5 -111.5t-92.5 -97t-112.5 -68.5t-130 -26q-54 0 -77 27.5t-23 69.5q0 27 7.5 58t21 62.5t32 62
t39.5 57.5q52 18 96.5 35t87.5 38t85.5 47t90.5 62q36 27 53 58.5t17 57.5q0 19 -10 33.5t-31 21.5q65 31 120 31q62 0 98 -40t36 -112zM1250 1000q-49 -26 -94.5 -57.5t-89.5 -70.5t-88.5 -87.5t-90.5 -108.5l-200 -66q67 94 146 167t156 122.5t146 75t115 25.5zM1545 785
q-23 -71 -69.5 -155.5t-110.5 -171.5t-142 -172t-165 -156q-21 22 -53 44t-73 39.5t-89.5 28t-102.5 10.5q-55 0 -113 -13t-118 -43q4 50 18 102.5t36 103.5t51 99.5t63 90.5l195 58q-43 -55 -63.5 -108.5t-20.5 -98.5q0 -60 34 -97t102 -37t128 23t111 63t93 93t74 112
t53 121.5t31 121.5q33 -30 63 -44t68 -14zM1040 116q-68 -53 -147 -77t-152 -24q-48 0 -89.5 10t-72.5 29t-49 46.5t-18 62.5q48 30 104 43t114 13q50 0 98 -8.5t89.5 -22.5t73.5 -32.5t49 -39.5zM1096 -27q0 -74 -28 -136t-74 -111.5t-105.5 -86.5t-123 -62t-126.5 -37.5
t-116 -12.5q-99 0 -189.5 31t-159.5 88t-110.5 138t-41.5 181q0 56 24.5 116t66.5 118t98 113t119 103t130.5 86t131.5 62q-73 -109 -106 -199t-33 -174v-14q0 -6 1 -13q-39 -28 -66.5 -74.5t-27.5 -95.5q0 -40 21 -73q-6 14 -10 31t-4 35q0 37 20 77t74 75
q9 -32 33.5 -58.5t60.5 -45t81 -28.5t96 -10q75 0 158 24t164 78q42 -54 42 -125zM1542 1238l-94 182q-23 7 -29 17.5t-10 10.5q-2 0 -5 -3l131 -214z" />
    <glyph glyph-name="Oacute" unicode="&#xd3;" horiz-adv-x="1350" 
d="M2101 1247q0 85 -30.5 154t-85.5 118t-132 75.5t-170 26.5q-37 0 -79.5 -9.5t-85 -28t-82 -45.5t-69.5 -61.5t-48 -77.5t-18 -92q0 -42 13.5 -82.5t40.5 -71.5t66.5 -50t91.5 -19q55 0 123 25q-27 -10 -51.5 -14t-47.5 -4q-49 0 -87 18.5t-64.5 49.5t-40 70t-13.5 81
q0 71 35 125.5t90 91.5t121 56t129 19q73 0 141 -25.5t120.5 -71t83.5 -108t31 -136.5q0 -59 -19.5 -115.5t-53.5 -108t-81 -95t-102 -75t-115.5 -49.5t-122.5 -18q2 15 3.5 29.5t1.5 28.5q0 44 -11.5 81t-33 63.5t-52 41t-68.5 14.5q-64 0 -142 -44q-61 0 -139.5 -22.5
t-167.5 -73t-184 -132.5t-189 -201q-56 -21 -123 -55.5t-134.5 -79.5t-130.5 -99t-112 -116t-78.5 -129.5t-29.5 -138.5q0 -105 46.5 -189.5t122 -143.5t170.5 -91t192 -32q64 0 132.5 14t134.5 40.5t124.5 66t103 89.5t70.5 110.5t26 130.5q0 39 -11 76.5t-34 70.5
q39 34 83.5 71.5t91 81t93.5 94.5t90.5 114.5t82 140t68.5 169.5q118 0 213.5 42t162.5 109t103.5 150.5t36.5 165.5zM1336 961q0 -20 -14.5 -46.5t-52.5 -56.5q-26 -21 -57 -41.5t-70.5 -41.5t-89.5 -43t-114 -45q99 123 186.5 199t158.5 114q7 3 15 3q15 0 26.5 -11
t11.5 -31zM1563 893q0 -40 -14 -93q-47 2 -75.5 14.5t-55.5 39.5q0 27 -8.5 40.5t-16.5 13.5q-9 0 -9 -15q0 -8 4 -21.5t15 -31.5q-7 -45 -26.5 -100.5t-50 -112.5t-71.5 -111.5t-92.5 -97t-112.5 -68.5t-130 -26q-54 0 -77 27.5t-23 69.5q0 27 7.5 58t21 62.5t32 62
t39.5 57.5q52 18 96.5 35t87.5 38t85.5 47t90.5 62q36 27 53 58.5t17 57.5q0 19 -10 33.5t-31 21.5q65 31 120 31q62 0 98 -40t36 -112zM1250 1000q-49 -26 -94.5 -57.5t-89.5 -70.5t-88.5 -87.5t-90.5 -108.5l-200 -66q67 94 146 167t156 122.5t146 75t115 25.5zM1545 785
q-23 -71 -69.5 -155.5t-110.5 -171.5t-142 -172t-165 -156q-21 22 -53 44t-73 39.5t-89.5 28t-102.5 10.5q-55 0 -113 -13t-118 -43q4 50 18 102.5t36 103.5t51 99.5t63 90.5l195 58q-43 -55 -63.5 -108.5t-20.5 -98.5q0 -60 34 -97t102 -37t128 23t111 63t93 93t74 112
t53 121.5t31 121.5q33 -30 63 -44t68 -14zM1040 116q-68 -53 -147 -77t-152 -24q-48 0 -89.5 10t-72.5 29t-49 46.5t-18 62.5q48 30 104 43t114 13q50 0 98 -8.5t89.5 -22.5t73.5 -32.5t49 -39.5zM1096 -27q0 -74 -28 -136t-74 -111.5t-105.5 -86.5t-123 -62t-126.5 -37.5
t-116 -12.5q-99 0 -189.5 31t-159.5 88t-110.5 138t-41.5 181q0 56 24.5 116t66.5 118t98 113t119 103t130.5 86t131.5 62q-73 -109 -106 -199t-33 -174v-14q0 -6 1 -13q-39 -28 -66.5 -74.5t-27.5 -95.5q0 -40 21 -73q-6 14 -10 31t-4 35q0 37 20 77t74 75
q9 -32 33.5 -58.5t60.5 -45t81 -28.5t96 -10q75 0 158 24t164 78q42 -54 42 -125zM1666 1450q-2 2 -4 2q-3 0 -6 -4t-7.5 -8.5t-10.5 -8t-16 -3.5l-123 -189l7 -7z" />
    <glyph glyph-name="Ocircumflex" unicode="&#xd4;" horiz-adv-x="1350" 
d="M2101 1247q0 85 -30.5 154t-85.5 118t-132 75.5t-170 26.5q-37 0 -79.5 -9.5t-85 -28t-82 -45.5t-69.5 -61.5t-48 -77.5t-18 -92q0 -42 13.5 -82.5t40.5 -71.5t66.5 -50t91.5 -19q55 0 123 25q-27 -10 -51.5 -14t-47.5 -4q-49 0 -87 18.5t-64.5 49.5t-40 70t-13.5 81
q0 71 35 125.5t90 91.5t121 56t129 19q73 0 141 -25.5t120.5 -71t83.5 -108t31 -136.5q0 -59 -19.5 -115.5t-53.5 -108t-81 -95t-102 -75t-115.5 -49.5t-122.5 -18q2 15 3.5 29.5t1.5 28.5q0 44 -11.5 81t-33 63.5t-52 41t-68.5 14.5q-64 0 -142 -44q-61 0 -139.5 -22.5
t-167.5 -73t-184 -132.5t-189 -201q-56 -21 -123 -55.5t-134.5 -79.5t-130.5 -99t-112 -116t-78.5 -129.5t-29.5 -138.5q0 -105 46.5 -189.5t122 -143.5t170.5 -91t192 -32q64 0 132.5 14t134.5 40.5t124.5 66t103 89.5t70.5 110.5t26 130.5q0 39 -11 76.5t-34 70.5
q39 34 83.5 71.5t91 81t93.5 94.5t90.5 114.5t82 140t68.5 169.5q118 0 213.5 42t162.5 109t103.5 150.5t36.5 165.5zM1336 961q0 -20 -14.5 -46.5t-52.5 -56.5q-26 -21 -57 -41.5t-70.5 -41.5t-89.5 -43t-114 -45q99 123 186.5 199t158.5 114q7 3 15 3q15 0 26.5 -11
t11.5 -31zM1563 893q0 -40 -14 -93q-47 2 -75.5 14.5t-55.5 39.5q0 27 -8.5 40.5t-16.5 13.5q-9 0 -9 -15q0 -8 4 -21.5t15 -31.5q-7 -45 -26.5 -100.5t-50 -112.5t-71.5 -111.5t-92.5 -97t-112.5 -68.5t-130 -26q-54 0 -77 27.5t-23 69.5q0 27 7.5 58t21 62.5t32 62
t39.5 57.5q52 18 96.5 35t87.5 38t85.5 47t90.5 62q36 27 53 58.5t17 57.5q0 19 -10 33.5t-31 21.5q65 31 120 31q62 0 98 -40t36 -112zM1250 1000q-49 -26 -94.5 -57.5t-89.5 -70.5t-88.5 -87.5t-90.5 -108.5l-200 -66q67 94 146 167t156 122.5t146 75t115 25.5zM1545 785
q-23 -71 -69.5 -155.5t-110.5 -171.5t-142 -172t-165 -156q-21 22 -53 44t-73 39.5t-89.5 28t-102.5 10.5q-55 0 -113 -13t-118 -43q4 50 18 102.5t36 103.5t51 99.5t63 90.5l195 58q-43 -55 -63.5 -108.5t-20.5 -98.5q0 -60 34 -97t102 -37t128 23t111 63t93 93t74 112
t53 121.5t31 121.5q33 -30 63 -44t68 -14zM1040 116q-68 -53 -147 -77t-152 -24q-48 0 -89.5 10t-72.5 29t-49 46.5t-18 62.5q48 30 104 43t114 13q50 0 98 -8.5t89.5 -22.5t73.5 -32.5t49 -39.5zM1096 -27q0 -74 -28 -136t-74 -111.5t-105.5 -86.5t-123 -62t-126.5 -37.5
t-116 -12.5q-99 0 -189.5 31t-159.5 88t-110.5 138t-41.5 181q0 56 24.5 116t66.5 118t98 113t119 103t130.5 86t131.5 62q-73 -109 -106 -199t-33 -174v-14q0 -6 1 -13q-39 -28 -66.5 -74.5t-27.5 -95.5q0 -40 21 -73q-6 14 -10 31t-4 35q0 37 20 77t74 75
q9 -32 33.5 -58.5t60.5 -45t81 -28.5t96 -10q75 0 158 24t164 78q42 -54 42 -125zM1656 1379l-11 8q-30 -31 -58 -54t-57 -41t-59.5 -31t-65.5 -23l13 -8q17 2 35 4.5t37.5 8.5t40.5 16t45 27q8 -14 15.5 -31t21.5 -25q5 0 11 3q-4 14 -8.5 28t-4.5 31q0 19 9.5 40t35.5 47z
" />
    <glyph glyph-name="Otilde" unicode="&#xd5;" horiz-adv-x="1350" 
d="M2101 1247q0 85 -30.5 154t-85.5 118t-132 75.5t-170 26.5q-37 0 -79.5 -9.5t-85 -28t-82 -45.5t-69.5 -61.5t-48 -77.5t-18 -92q0 -42 13.5 -82.5t40.5 -71.5t66.5 -50t91.5 -19q55 0 123 25q-27 -10 -51.5 -14t-47.5 -4q-49 0 -87 18.5t-64.5 49.5t-40 70t-13.5 81
q0 71 35 125.5t90 91.5t121 56t129 19q73 0 141 -25.5t120.5 -71t83.5 -108t31 -136.5q0 -59 -19.5 -115.5t-53.5 -108t-81 -95t-102 -75t-115.5 -49.5t-122.5 -18q2 15 3.5 29.5t1.5 28.5q0 44 -11.5 81t-33 63.5t-52 41t-68.5 14.5q-64 0 -142 -44q-61 0 -139.5 -22.5
t-167.5 -73t-184 -132.5t-189 -201q-56 -21 -123 -55.5t-134.5 -79.5t-130.5 -99t-112 -116t-78.5 -129.5t-29.5 -138.5q0 -105 46.5 -189.5t122 -143.5t170.5 -91t192 -32q64 0 132.5 14t134.5 40.5t124.5 66t103 89.5t70.5 110.5t26 130.5q0 39 -11 76.5t-34 70.5
q39 34 83.5 71.5t91 81t93.5 94.5t90.5 114.5t82 140t68.5 169.5q118 0 213.5 42t162.5 109t103.5 150.5t36.5 165.5zM1336 961q0 -20 -14.5 -46.5t-52.5 -56.5q-26 -21 -57 -41.5t-70.5 -41.5t-89.5 -43t-114 -45q99 123 186.5 199t158.5 114q7 3 15 3q15 0 26.5 -11
t11.5 -31zM1563 893q0 -40 -14 -93q-47 2 -75.5 14.5t-55.5 39.5q0 27 -8.5 40.5t-16.5 13.5q-9 0 -9 -15q0 -8 4 -21.5t15 -31.5q-7 -45 -26.5 -100.5t-50 -112.5t-71.5 -111.5t-92.5 -97t-112.5 -68.5t-130 -26q-54 0 -77 27.5t-23 69.5q0 27 7.5 58t21 62.5t32 62
t39.5 57.5q52 18 96.5 35t87.5 38t85.5 47t90.5 62q36 27 53 58.5t17 57.5q0 19 -10 33.5t-31 21.5q65 31 120 31q62 0 98 -40t36 -112zM1250 1000q-49 -26 -94.5 -57.5t-89.5 -70.5t-88.5 -87.5t-90.5 -108.5l-200 -66q67 94 146 167t156 122.5t146 75t115 25.5zM1545 785
q-23 -71 -69.5 -155.5t-110.5 -171.5t-142 -172t-165 -156q-21 22 -53 44t-73 39.5t-89.5 28t-102.5 10.5q-55 0 -113 -13t-118 -43q4 50 18 102.5t36 103.5t51 99.5t63 90.5l195 58q-43 -55 -63.5 -108.5t-20.5 -98.5q0 -60 34 -97t102 -37t128 23t111 63t93 93t74 112
t53 121.5t31 121.5q33 -30 63 -44t68 -14zM1040 116q-68 -53 -147 -77t-152 -24q-48 0 -89.5 10t-72.5 29t-49 46.5t-18 62.5q48 30 104 43t114 13q50 0 98 -8.5t89.5 -22.5t73.5 -32.5t49 -39.5zM1096 -27q0 -74 -28 -136t-74 -111.5t-105.5 -86.5t-123 -62t-126.5 -37.5
t-116 -12.5q-99 0 -189.5 31t-159.5 88t-110.5 138t-41.5 181q0 56 24.5 116t66.5 118t98 113t119 103t130.5 86t131.5 62q-73 -109 -106 -199t-33 -174v-14q0 -6 1 -13q-39 -28 -66.5 -74.5t-27.5 -95.5q0 -40 21 -73q-6 14 -10 31t-4 35q0 37 20 77t74 75
q9 -32 33.5 -58.5t60.5 -45t81 -28.5t96 -10q75 0 158 24t164 78q42 -54 42 -125zM1695 1283l-3 3q-26 -10 -50 -10t-46 7.5t-43.5 17t-43 17t-44.5 7.5q-42 0 -93 -42v-7q17 16 34 22t36 6q21 0 43.5 -5.5t46 -12.5t47.5 -12.5t49 -5.5q17 0 33.5 3.5t33.5 11.5z" />
    <glyph glyph-name="Odieresis" unicode="&#xd6;" horiz-adv-x="1350" 
d="M2101 1247q0 85 -30.5 154t-85.5 118t-132 75.5t-170 26.5q-37 0 -79.5 -9.5t-85 -28t-82 -45.5t-69.5 -61.5t-48 -77.5t-18 -92q0 -42 13.5 -82.5t40.5 -71.5t66.5 -50t91.5 -19q55 0 123 25q-27 -10 -51.5 -14t-47.5 -4q-49 0 -87 18.5t-64.5 49.5t-40 70t-13.5 81
q0 71 35 125.5t90 91.5t121 56t129 19q73 0 141 -25.5t120.5 -71t83.5 -108t31 -136.5q0 -59 -19.5 -115.5t-53.5 -108t-81 -95t-102 -75t-115.5 -49.5t-122.5 -18q2 15 3.5 29.5t1.5 28.5q0 44 -11.5 81t-33 63.5t-52 41t-68.5 14.5q-64 0 -142 -44q-61 0 -139.5 -22.5
t-167.5 -73t-184 -132.5t-189 -201q-56 -21 -123 -55.5t-134.5 -79.5t-130.5 -99t-112 -116t-78.5 -129.5t-29.5 -138.5q0 -105 46.5 -189.5t122 -143.5t170.5 -91t192 -32q64 0 132.5 14t134.5 40.5t124.5 66t103 89.5t70.5 110.5t26 130.5q0 39 -11 76.5t-34 70.5
q39 34 83.5 71.5t91 81t93.5 94.5t90.5 114.5t82 140t68.5 169.5q118 0 213.5 42t162.5 109t103.5 150.5t36.5 165.5zM1336 961q0 -20 -14.5 -46.5t-52.5 -56.5q-26 -21 -57 -41.5t-70.5 -41.5t-89.5 -43t-114 -45q99 123 186.5 199t158.5 114q7 3 15 3q15 0 26.5 -11
t11.5 -31zM1563 893q0 -40 -14 -93q-47 2 -75.5 14.5t-55.5 39.5q0 27 -8.5 40.5t-16.5 13.5q-9 0 -9 -15q0 -8 4 -21.5t15 -31.5q-7 -45 -26.5 -100.5t-50 -112.5t-71.5 -111.5t-92.5 -97t-112.5 -68.5t-130 -26q-54 0 -77 27.5t-23 69.5q0 27 7.5 58t21 62.5t32 62
t39.5 57.5q52 18 96.5 35t87.5 38t85.5 47t90.5 62q36 27 53 58.5t17 57.5q0 19 -10 33.5t-31 21.5q65 31 120 31q62 0 98 -40t36 -112zM1250 1000q-49 -26 -94.5 -57.5t-89.5 -70.5t-88.5 -87.5t-90.5 -108.5l-200 -66q67 94 146 167t156 122.5t146 75t115 25.5zM1545 785
q-23 -71 -69.5 -155.5t-110.5 -171.5t-142 -172t-165 -156q-21 22 -53 44t-73 39.5t-89.5 28t-102.5 10.5q-55 0 -113 -13t-118 -43q4 50 18 102.5t36 103.5t51 99.5t63 90.5l195 58q-43 -55 -63.5 -108.5t-20.5 -98.5q0 -60 34 -97t102 -37t128 23t111 63t93 93t74 112
t53 121.5t31 121.5q33 -30 63 -44t68 -14zM1040 116q-68 -53 -147 -77t-152 -24q-48 0 -89.5 10t-72.5 29t-49 46.5t-18 62.5q48 30 104 43t114 13q50 0 98 -8.5t89.5 -22.5t73.5 -32.5t49 -39.5zM1096 -27q0 -74 -28 -136t-74 -111.5t-105.5 -86.5t-123 -62t-126.5 -37.5
t-116 -12.5q-99 0 -189.5 31t-159.5 88t-110.5 138t-41.5 181q0 56 24.5 116t66.5 118t98 113t119 103t130.5 86t131.5 62q-73 -109 -106 -199t-33 -174v-14q0 -6 1 -13q-39 -28 -66.5 -74.5t-27.5 -95.5q0 -40 21 -73q-6 14 -10 31t-4 35q0 37 20 77t74 75
q9 -32 33.5 -58.5t60.5 -45t81 -28.5t96 -10q75 0 158 24t164 78q42 -54 42 -125zM1612 1331q0 9 -5 13t-13 4q-12 0 -22 -6q-28 -16 -38.5 -33t-12.5 -28q0 -20 3.5 -27.5t13.5 -7.5q2 0 12 2q22 14 37.5 30t20.5 35q4 9 4 18zM1488 1334q0 17 -17 17q-9 0 -19 -5
q-52 -28 -62 -65q-2 -8 -2 -12q0 -24 20 -24q7 0 18 6q22 14 37.5 33t20.5 33q4 8 4 17z" />
    <glyph glyph-name="multiply" unicode="&#xd7;" horiz-adv-x="736" 
d="M690 378l-3 3q-27 -8 -56.5 -18.5t-63.5 -27.5t-74.5 -42.5t-89.5 -63.5q-16 26 -33.5 45.5t-35.5 34.5t-36.5 27.5t-36.5 23.5l26 -40q17 -8 36 -35t44 -67l7 -11q-39 -27 -75 -59t-74 -62t-80.5 -55t-94.5 -39l4 -3q43 7 84 24.5t82 42t82.5 55t86.5 63.5
q20 -39 47.5 -65.5t57 -45.5t59 -33.5t54.5 -29.5v7q-25 15 -48.5 29t-47 34t-46 49.5t-44.5 76.5q38 27 67 51.5t58 46.5t62.5 42.5t81.5 41.5z" />
    <glyph glyph-name="Oslash" unicode="&#xd8;" horiz-adv-x="627" 
d="M836 887q0 48 -23.5 81t-67.5 33q-26 0 -59.5 -16t-71.5 -55q-81 -84 -153 -193t-135 -226.5t-116.5 -236t-97.5 -220.5l4 -4q65 120 127.5 237.5t125.5 228t128 211.5t135 189q29 35 61.5 51.5t59.5 16.5q29 0 47 -21t18 -65q-5 -48 -33 -118.5t-72 -151.5t-99.5 -166
t-115.5 -163t-120.5 -142t-112.5 -103q-26 -20 -53.5 -31.5t-53.5 -11.5q-21 0 -39 8t-29 24q-7 12 -10 25.5t-3 27.5q0 24 6 48t11 45q7 26 28 72t51.5 103.5t69 122.5t80.5 130t84.5 127t81.5 112t72.5 85.5t56.5 47.5q35 24 80.5 33.5t90.5 9.5q-8 2 -16.5 3t-19.5 1
q-18 0 -38 -3t-40 -8t-38.5 -12.5t-33.5 -16.5q-53 -32 -110 -83t-112 -116t-106.5 -141t-94.5 -156t-74.5 -161.5t-47.5 -157.5q-2 -11 -4 -22.5t-2 -22.5q0 -32 8.5 -59t19.5 -41q15 -20 34.5 -28t41.5 -8q29 0 60 11.5t56 28.5q60 43 121.5 100.5t120 126t111 144.5
t95 155.5t72.5 161t44 159.5z" />
    </font>
</defs>
</svg>
